Mixkatalog
 Einloggen
Login
Passwort

Deep Dance 018 Hits: 2  

Deep Dance 018


Kurzbeschreibung:
Deep Records präsentiert Deep Dance Volume 18. Gemixt von DJ Deep. Als Bonustrack ist hier Part 2 des Yearmix 1992 enthalten, welcher sich auf Deep Dance 17 befindet. Die Dance Insert stammen alle vom Mastermix.
 
Crew/DJ: Deep Records Reihe: DD Serie by Deep
Stil: Dance Erscheinungsjahr: 1993
Anzahl Tonträger: 1 Spielzeit: 74:36
Trackliste:
    Deep Dance 18:
    Spieldauer 29'11
  1. Intro - (Hessen Intro)
  2. Rage - Why Don't You
  3. African Bambaataa - Funky Heroes
  4. Black Bizarre - Stop The Rain
  5. Sonic Surfers - Take Me Up
  6. Dr. Alban - Sing Hallelujah
  7. DJ Bobo - Somebody Dance With Me
  8. Nu People - Precious Little Diamonds
  9. Chase - Music Is My Life
  10. Cartouché - Shame
  11. Mikky Mouse - Electro Party
  12. Orlando Johnson - You
  13. African People - Adventure
  14. Def Dames Dope - It's OK, It's Alright!
  15. Praga Kahn & Jade - Phantasia Forever
  16. Vernon - Wanderer
  17. Captain Hollywood Project - Only With You
  18. Ultra V. - Pure David
  19. Michael Johnson - I Say A Little Prayer
  20. MasterBoy - Fall In Trance
  21. Culture Beat - Mr. Vain
  22. Haddaway - What Is Love
  23. Laila K. - Check The Dan
  24. Romance - Romance Anonimo
  25. D-Sign feat. In Trance - Te Quierro
  26. Infinity - Dirty Love
  27. Humate - Love Stimulation
  28. Steam System Sigrid - Barraca Destroy
  29. Interactive - Amok
  30. Dance 2 Trance - Power Of American Natives
  31. U96 - Love Sees No Colour
  32. Bass Bumpers - Runnin'
    Best Of 1992 Part 2:
    Spieldauer 19'24
  33. Maggie Reilly - Everytime We Touch
  34. Black Machine - How Gee
  35. Prince - Sexy Mother Fucker
  36. Genesis - I Can't Dance
  37. Jon Secada - Just Another Day
  38. Joe Public - Live & Learn
  39. Bobby Brown - Humpin' Around
  40. Kriss Kross - Jump
  41. Incognito - Don't U Worry 'Bout A Thing
  42. The K.L.F. - Justified & Ancient
  43. Lionel Richie - My Destiny
  44. Brotherhood Creed - Helluva
  45. Roxette - Queen Of Rain
  46. Lil Dee - Bang The Bass
  47. R. Kelly - She's Got The Wibe
  48. Mr. Tung Twista - Tung Twista
  49. Chypnotic - I Can't Get Enough
  50. Nirvana - Smells Like Teen Spirit
  51. Pasadenas - I'm Doin Fine Now
  52. Chic - Chic Mystique
  53. Michael Jackson - Remember The Time
  54. Dina Carol - Ain't No Man
  55. MC Sar & The Real McCoy - Let's Talk About Love
  56. Ce-Ce Peniston - We Got A Love Thang
  57. Roxette - How Do U Do
    Dance Insert 1: Dance Insert Vol 2 From Mastermix Issue 79
    Spieldauer 7'02
  58. Westend feat. Sybil - The Love I Lost
  59. Undercover - I Wanna Stay With You
  60. Sister Sledge - We Are Family
  61. Rapination - Love Me The Right Way
  62. Eskimos & Egypt - Fall From Grace
  63. 2 Unlimited - No Limit
    Dance Insert 2: Dance Insert Vol 2½ (The Smell OF Feet) From Mastermix Issue 80
    Spieldauer 4'50
  64. Dr. Alban - Sing Hallelujah
  65. Sybil - When I'm Good & Ready
  66. Bizarre Inc. - Took My Love
  67. Capella - U Got 2 Know
    Dance Insert 3: Play It! From Mastermix Issue 79
    Spieldauer 6'39
  68. Westend feat. Sybil - The Love I Lost
  69. Sister Sledge - We Are Family
  70. Captain Hollywood - More & More
  71. Cover Girls - If You Want My Love,Here It Is
  72. Def Dames Dope - It's O.K - It's Allright
    Dance Insert 4: Deep Deep Down From Mastermix Issue 80
    Spieldauer 7'29
  73. East 17 - Deep
  74. PM Dawn - Looking Through Patient Eyes
  75. Beloved - Sweet Harmony
  76. Take That - Why Can't I Wake Up With You
Cue-Informationen:

FILE "filename.mp3" MP3 
  TRACK 01 AUDIO
    INDEX 01 00:00:00
  TRACK 02 AUDIO
    INDEX 01 29:11:45
  TRACK 03 AUDIO
    INDEX 01 48:35:50
  TRACK 04 AUDIO
    INDEX 01 55:37:52
  TRACK 05 AUDIO
    INDEX 01 60:28:23
  TRACK 06 AUDIO
    INDEX 01 67:07:50
Wertung: (1)   Hinzugefügt: 23 December 2009
RSS Feed
RSS Feed
Sprache
Deutsch Englisch Französisch
Mixsuche
Suchbegriff
Genauer Wortlaut
Alle Worte (UND)
Ein Wort (ODER)
Statistik
14860 Mixe eingetragen
14547 Tracklisten
Newsletter
E-Mail
Anmelden
Abmelden
SPONSOREN