Mixkatalog
 Einloggen
Login
Passwort

Deep Dance 017 Hits: 6  

Deep Dance 017


Kurzbeschreibung:
Deep Records präsentiert Deep Dance Volume 17, Yearmix 1992. Gemixt von DJ Deep. Part II dieses Mixes befindet sich auf Deep Dance 18.
 
Crew/DJ: Deep Records Reihe: DD Serie by Deep
Stil: Pop Erscheinungsjahr: 1993
Anzahl Tonträger: 1 Spielzeit: 70:03
Trackliste:
    Best of 1992 Part 1:
    Spieldauer 23'59
  1. Intro
  2. Mr. Big - To Be With You
  3. Inner Circle - Rock Wit Cha
  4. Inner Circle - Sweat
  5. Shabba Ranks - Mr. Loverman
  6. Ten Sharp - You
  7. Clouseau - Close Encounters
  8. Maxi Priest - Groovin In The Midnight
  9. Luther Vandross - The Rush
  10. Beauty & Deep - So Deep
  11. Sophie B Hawkins - Damn I Wish I Was Your Lover
  12. Vanessa Williams - Save The Best For Last
  13. Simply Red - For Your Babies
  14. Shanice - I Love Your Smile
  15. George Michael - Too Funky
  16. Jamestown - She's Got Soul
  17. Dr. Alban - One Love
  18. Tasmin Archer - Sleeping Satellite
  19. Fantastischen Vier - Die Da
  20. Del The Funky Homosopien - Mistadobalina
  21. Annie Lenox - Why
  22. Salt 'N' Pepa - Start With Up
  23. En Vogue - My Lovi'n
  24. Soul II Soul - Joy
  25. Garland Jeffries - Hail Hail Rock 'N' Roll
  26. Jimmy Nail - Ain't No Doubt
  27. Simply Red - Stars
  28. Wrecks 'N' Effect - Rumpshaker
  29. Madonna - Erotica
  30. Michael Jackson - Who Is It
  31. Army Of Lovers - Obsession
  32. Cool & Joy - Bolingo
  33. Try 'N' B - Sexy Eyes
  34. Salt 'N' Pepa - You Showed Me
    Best of 1992 Part 3:
    Spieldauer 23'00
  35. Londonbeat - You Bring On The Sun
  36. Sophia - Running So Hard
  37. Exclusive System - Get On Down
  38. Clubland - Set Me Free
  39. Erasure - Take A Chance On Me
  40. Michael Jackson - In The Closet
  41. Shawn Christopher - Don't Lose The Magic
  42. Salt 'N' Pepa - Expression
  43. Luther Vandross & Janet Jackson - The Best Things In Life At Free
  44. Undercover - Never Let Her Slip Away
  45. Double You - Please Dont Go
  46. Lee Marrow - I Want Your Love
  47. Clivilles & Cole - A Deeper Love
  48. Undercover - Baker Street
  49. Double You - Who's Fooling Who
  50. Billy Ray Cyrus - Achy Breaky Heart
  51. Sezen Aksu - Hadi Bakalim
  52. Danny B - Lovey Dovey
  53. Die Prinzen - Mann Im Mond
  54. Nu People - You're No Good
  55. U96 - Das Boot
  56. Vamoz - In The Summer 92
  57. Inner City - Pennies From Heaven
  58. Snap! - Rhythm Is A Dancer
  59. Opus III - It's A Fine Day
  60. Right Said Fred - Don't Talk Just Kiss
  61. Get Decor - Passion
    Best of 1992 Part 4:
    Spieldauer 23'03
  62. Haddaway - What Is Love
  63. Candy Beat - Saxy
  64. Pretty B - Frederik
  65. Euphoria - One In A Million
  66. Euphoria - Love You Right
  67. Candy Beat - Feel Alright
  68. Captain Hollywood Project - More & More
  69. Two Unlimited - The Magic Freind
  70. Co.Ro feat. Taleesa - Because The Night
  71. Bizarre Inc. - Love's Gonna Get You
  72. Two Unlimited - Twilight Zone
  73. Rozalla - Are You Ready To Fly
  74. New Atlantic - I Know
  75. Jocelyn Brown - Gypsy Rhythm
  76. General Base - Back Again
  77. Felix - It Will Make Me Crazy
  78. Felix - Don't You Want Me
  79. The Object - Theme From Terminator 2
  80. Phenomania - Rave-O-Lution
  81. Prayers - Imagination
  82. Young MC - That's The Way Love Goes
  83. Dr. Alban - It's My Life
  84. Edelweiss - Starship Edelweiss
  85. T.H.K - France
  86. Bass Bumpers - The Music's Got Me
  87. Ramirez - La Musica Tremenda
  88. Age Of Love - Age Of Love
  89. Ultimate Seduction - Ultimate Seduction
  90. G.N.D - For Fun
  91. Rotterdam - Poing
  92. Speedy J. - Pullover
  93. U96 - I Wanna Be A Kennedy
  94. Doctor Spin - Tetris
  95. Dyewitness - Observing The Earth
  96. Interactive - Dildo
  97. Nuke - Nana
  98. Ramirez - Orgasmico
  99. Westbam - Mayday
  100. Interactive - Elevator Up & Down
  101. God's Groove - Prayer 3
Cue-Informationen:

FILE "filename.mp3" MP3 
  TRACK 01 AUDIO
    INDEX 01 00:00:00
  TRACK 02 AUDIO
    INDEX 01 23:59:05
  TRACK 03 AUDIO
    INDEX 01 46:59:37
Wertung: (1)   Hinzugefügt: 23 December 2009
RSS Feed
RSS Feed
Sprache
Deutsch Englisch Französisch
Mixsuche
Suchbegriff
Genauer Wortlaut
Alle Worte (UND)
Ein Wort (ODER)
Statistik
14943 Mixe eingetragen
14627 Tracklisten
Newsletter
E-Mail
Anmelden
Abmelden
SPONSOREN