Mixkatalog
 Einloggen
Login
Passwort

Norman Langen & Beatrice Egli Megamix Hits: 210  

Norman Langen & Beatrice Egli Megamix


Kurzbeschreibung:
Ruhrpott Records präsentiert Norman Langen & Beatrice Egli Megamix.
 
Crew/DJ: Ruhrpott Records Reihe: Megamix
Stil: Schlager Erscheinungsjahr: 2014
Anzahl Tonträger: 1 Spielzeit: 79:15
Trackliste:
Cue-Informationen:

FILE "filename.mp3" MP3
  TRACK 01 AUDIO
    INDEX 01 00:00:00
  TRACK 02 AUDIO
    INDEX 01 00:14:69
  TRACK 03 AUDIO
    INDEX 01 02:46:36
  TRACK 04 AUDIO
    INDEX 01 04:48:21
  TRACK 05 AUDIO
    INDEX 01 05:59:69
  TRACK 06 AUDIO
    INDEX 01 08:49:40
  TRACK 07 AUDIO
    INDEX 01 10:02:20
  TRACK 08 AUDIO
    INDEX 01 11:02:20
  TRACK 09 AUDIO
    INDEX 01 12:02:20
  TRACK 10 AUDIO
    INDEX 01 13:58:47
  TRACK 11 AUDIO
    INDEX 01 16:05:68
  TRACK 12 AUDIO
    INDEX 01 17:27:54
  TRACK 13 AUDIO
    INDEX 01 19:39:47
  TRACK 14 AUDIO
    INDEX 01 21:37:58
  TRACK 15 AUDIO
    INDEX 01 23:52:41
  TRACK 16 AUDIO
    INDEX 01 25:06:30
  TRACK 17 AUDIO
    INDEX 01 27:11:70
  TRACK 18 AUDIO
    INDEX 01 28:42:30
  TRACK 19 AUDIO
    INDEX 01 30:47:62
  TRACK 20 AUDIO
    INDEX 01 32:55:25
  TRACK 21 AUDIO
    INDEX 01 33:57:16
  TRACK 22 AUDIO
    INDEX 01 34:57:15
  TRACK 23 AUDIO
    INDEX 01 37:16:07
  TRACK 24 AUDIO
    INDEX 01 40:00:48
  TRACK 25 AUDIO
    INDEX 01 41:22:41
  TRACK 26 AUDIO
    INDEX 01 43:31:03
  TRACK 27 AUDIO
    INDEX 01 45:01:57
  TRACK 28 AUDIO
    INDEX 01 46:20:34
  TRACK 29 AUDIO
    INDEX 01 48:27:60
  TRACK 30 AUDIO
    INDEX 01 51:01:51
  TRACK 31 AUDIO
    INDEX 01 53:13:44
  TRACK 32 AUDIO
    INDEX 01 54:13:10
  TRACK 33 AUDIO
    INDEX 01 55:55:42
  TRACK 34 AUDIO
    INDEX 01 58:24:64
  TRACK 35 AUDIO
    INDEX 01 59:44:64
  TRACK 36 AUDIO
    INDEX 01 62:24:64
  TRACK 37 AUDIO
    INDEX 01 64:54:27
  TRACK 38 AUDIO
    INDEX 01 66:06:57
  TRACK 39 AUDIO
    INDEX 01 67:25:36
  TRACK 40 AUDIO
    INDEX 01 69:34:08
  TRACK 41 AUDIO
    INDEX 01 71:06:21
  TRACK 42 AUDIO
    INDEX 01 72:19:62
  TRACK 43 AUDIO
    INDEX 01 73:37:19
  TRACK 44 AUDIO
    INDEX 01 75:17:67
  TRACK 45 AUDIO
    INDEX 01 77:43:04
Wertung: (1)  
Hinzugefügt: 16 March 2014
RSS Feed
RSS Feed
Sprache
Deutsch Englisch Französisch
Mixsuche
Suchbegriff
Genauer Wortlaut
Alle Worte (UND)
Ein Wort (ODER)
Statistik
12236 Mixe eingetragen
11976 Tracklisten
Newsletter
E-Mail
Anmelden
Abmelden
SPONSOREN