Mixkatalog
 Einloggen
Login
Passwort

Take Fourteen Hits: 7  

Take Fourteen


Kurzbeschreibung:
USA Dance präsentiert Take Fourteen.
 
Crew/DJ: USA Dance Reihe: Story
Stil: Dance Erscheinungsjahr: 1998
CDs: 1 Spielzeit: 70:13
Trackliste:
Cue-Informationen:

FILE "filename.mp3" MP3
  TRACK 01 AUDIO
    INDEX 01 00:00:00
  TRACK 02 AUDIO
    INDEX 01 01:07:56
  TRACK 03 AUDIO
    INDEX 01 04:10:67
  TRACK 04 AUDIO
    INDEX 01 06:12:37
  TRACK 05 AUDIO
    INDEX 01 08:11:18
  TRACK 06 AUDIO
    INDEX 01 10:02:64
  TRACK 07 AUDIO
    INDEX 01 12:30:26
  TRACK 08 AUDIO
    INDEX 01 14:46:39
  TRACK 09 AUDIO
    INDEX 01 16:53:58
  TRACK 10 AUDIO
    INDEX 01 19:24:53
  TRACK 11 AUDIO
    INDEX 01 21:18:37
  TRACK 12 AUDIO
    INDEX 01 24:16:10
  TRACK 13 AUDIO
    INDEX 01 27:13:42
  TRACK 14 AUDIO
    INDEX 01 28:52:66
  TRACK 15 AUDIO
    INDEX 01 29:58:51
  TRACK 16 AUDIO
    INDEX 01 32:34:46
  TRACK 17 AUDIO
    INDEX 01 34:34:67
  TRACK 18 AUDIO
    INDEX 01 35:45:51
  TRACK 19 AUDIO
    INDEX 01 36:42:13
  TRACK 20 AUDIO
    INDEX 01 39:14:59
  TRACK 21 AUDIO
    INDEX 01 40:32:00
  TRACK 22 AUDIO
    INDEX 01 41:56:20
  TRACK 23 AUDIO
    INDEX 01 42:52:22
  TRACK 24 AUDIO
    INDEX 01 44:03:05
  TRACK 25 AUDIO
    INDEX 01 45:06:01
  TRACK 26 AUDIO
    INDEX 01 47:42:30
  TRACK 27 AUDIO
    INDEX 01 49:54:14
  TRACK 28 AUDIO
    INDEX 01 51:19:64
  TRACK 29 AUDIO
    INDEX 01 53:25:65
  TRACK 30 AUDIO
    INDEX 01 55:44:32
  TRACK 31 AUDIO
    INDEX 01 57:50:34
  TRACK 32 AUDIO
    INDEX 01 59:26:55
  TRACK 33 AUDIO
    INDEX 01 62:26:07
  TRACK 34 AUDIO
    INDEX 01 65:45:72
  TRACK 35 AUDIO
    INDEX 01 67:37:56
Wertung: ()  
Hinzugefügt: 18 November 2009
Bewerte als Erster diesen Mix:
RSS Feed
RSS Feed
Sprache
Deutsch Englisch Französisch
Mixsuche
Suchbegriff
Genauer Wortlaut
Alle Worte (UND)
Ein Wort (ODER)
Statistik
34691 Mixe eingetragen
32812 Tracklisten
Newsletter
E-Mail
Anmelden
Abmelden
SPONSOREN