Mixkatalog
 Einloggen
Login
Passwort

Deep Dance 116 Hits: 138  

Deep Dance 116


Kurzbeschreibung:
Deep präsentiert Deep Dance 116, South Park Poster Edition 3/6.
 
Crew/DJ: Deep Reihe: DD Serie Erstauflage
Stil: Dance Erscheinungsjahr: 2008
Anzahl Tonträger: 1 Spielzeit: 73:00
Trackliste:
Cue-Informationen:

FILE "filename.mp3" MP3
  TRACK 01 AUDIO
    INDEX 01 00:00:00
  TRACK 02 AUDIO
    INDEX 01 00:23:10
  TRACK 03 AUDIO
    INDEX 01 30:46:48
  TRACK 04 AUDIO
    INDEX 01 52:54:36
Wertung: ()  
Hinzugefügt: 7 April 2011
Bewerte als Erster diesen Mix:
RSS Feed
RSS Feed
Sprache
Deutsch Englisch Französisch
Mixsuche
Suchbegriff
Genauer Wortlaut
Alle Worte (UND)
Ein Wort (ODER)
Statistik
12440 Mixe eingetragen
12168 Tracklisten
Newsletter
E-Mail
Anmelden
Abmelden
SPONSOREN