Mixkatalog
 Einloggen
Login
Passwort

Projekt 077 Hits: 34  

Projekt 077


Kurzbeschreibung:
Gemini präsentiert Projekt 77. The Newest In House-Techno-Trance Music.
 
Crew/DJ: Gemini Reihe: Story
Stil: Trance Erscheinungsjahr: 1999
CDs: 1 Spielzeit: 77:12
Trackliste:
Cue-Informationen:

FILE "filename.mp3" MP3
  TRACK 01 AUDIO
    INDEX 01 00:00:00
  TRACK 02 AUDIO
    INDEX 01 07:12:56
  TRACK 03 AUDIO
    INDEX 01 13:39:22
  TRACK 04 AUDIO
    INDEX 01 18:58:23
  TRACK 05 AUDIO
    INDEX 01 27:00:18
  TRACK 06 AUDIO
    INDEX 01 33:20:02
  TRACK 07 AUDIO
    INDEX 01 41:05:00
  TRACK 08 AUDIO
    INDEX 01 45:46:08
  TRACK 09 AUDIO
    INDEX 01 51:45:15
  TRACK 10 AUDIO
    INDEX 01 57:15:09
  TRACK 11 AUDIO
    INDEX 01 61:50:11
  TRACK 12 AUDIO
    INDEX 01 67:10:26
  TRACK 13 AUDIO
    INDEX 01 72:51:50
Wertung: ()  
Hinzugefügt: 21 October 2011
Bewerte als Erster diesen Mix:
RSS Feed
RSS Feed
Sprache
Deutsch Englisch Französisch
Mixsuche
Suchbegriff
Genauer Wortlaut
Alle Worte (UND)
Ein Wort (ODER)
Statistik
29895 Mixe eingetragen
28277 Tracklisten
Newsletter
E-Mail
Anmelden
Abmelden
SPONSOREN