Mixkatalog
 Einloggen
Login
Passwort

The Yearmix 2008 Hits: 137  

The Yearmix 2008


Kurzbeschreibung:
The Yearmix 2008 von Breakfreak32 unter dem Label 13th Records.
 
Crew/DJ: 13th Records Reihe: Yearmix
Stil: Dance Erscheinungsjahr: 2009
Anzahl Tonträger: 1 Spielzeit: 71:04
Trackliste:
Cue-Informationen:

FILE "filename.mp3" MP3
  TRACK 01 AUDIO
    INDEX 01 00:00:00
  TRACK 02 AUDIO
    INDEX 01 01:12:15
  TRACK 03 AUDIO
    INDEX 01 08:28:00
  TRACK 04 AUDIO
    INDEX 01 13:49:20
  TRACK 05 AUDIO
    INDEX 01 20:27:30
  TRACK 06 AUDIO
    INDEX 01 28:03:45
  TRACK 07 AUDIO
    INDEX 01 33:33:05
  TRACK 08 AUDIO
    INDEX 01 40:16:05
  TRACK 09 AUDIO
    INDEX 01 47:57:30
  TRACK 10 AUDIO
    INDEX 01 56:43:35
  TRACK 11 AUDIO
    INDEX 01 62:27:20
Wertung: (7)  
Hinzugefügt: 20 January 2009
RSS Feed
RSS Feed
Sprache
Deutsch Englisch Französisch
Mixsuche
Suchbegriff
Genauer Wortlaut
Alle Worte (UND)
Ein Wort (ODER)
Statistik
13022 Mixe eingetragen
12730 Tracklisten
Newsletter
E-Mail
Anmelden
Abmelden
SPONSOREN