Mixkatalog
 Einloggen
Login
Passwort

Die Deutsche Edition 2 Hits: 291  

Die Deutsche Edition 2


Kurzbeschreibung:
Sixty-Six Records präsentiert Club 66 Die Deutsche Edition 2, gemixt von DJ 66.
 
Crew/DJ: Club 66 Reihe: Die Deutsche
Stil: Schlager Erscheinungsjahr: 2012
Anzahl Tonträger: 1 Spielzeit: 79:57
Trackliste:
Cue-Informationen:

FILE "filename.mp3" MP3
  TRACK 01 AUDIO
    INDEX 01 00:00:00
  TRACK 02 AUDIO
    INDEX 01 01:12:31
  TRACK 03 AUDIO
    INDEX 01 02:59:22
  TRACK 04 AUDIO
    INDEX 01 04:23:50
  TRACK 05 AUDIO
    INDEX 01 05:23:50
  TRACK 06 AUDIO
    INDEX 01 06:23:50
  TRACK 07 AUDIO
    INDEX 01 07:23:15
  TRACK 08 AUDIO
    INDEX 01 08:24:09
  TRACK 09 AUDIO
    INDEX 01 09:32:32
  TRACK 10 AUDIO
    INDEX 01 10:31:38
  TRACK 11 AUDIO
    INDEX 01 12:01:73
  TRACK 12 AUDIO
    INDEX 01 13:10:21
  TRACK 13 AUDIO
    INDEX 01 14:10:54
  TRACK 14 AUDIO
    INDEX 01 15:10:54
  TRACK 15 AUDIO
    INDEX 01 16:08:68
  TRACK 16 AUDIO
    INDEX 01 17:07:05
  TRACK 17 AUDIO
    INDEX 01 18:18:53
  TRACK 18 AUDIO
    INDEX 01 19:45:25
  TRACK 19 AUDIO
    INDEX 01 21:25:24
  TRACK 20 AUDIO
    INDEX 01 22:36:17
  TRACK 21 AUDIO
    INDEX 01 24:01:52
  TRACK 22 AUDIO
    INDEX 01 24:59:65
  TRACK 23 AUDIO
    INDEX 01 26:16:17
  TRACK 24 AUDIO
    INDEX 01 27:18:03
  TRACK 25 AUDIO
    INDEX 01 28:32:44
  TRACK 26 AUDIO
    INDEX 01 29:56:65
  TRACK 27 AUDIO
    INDEX 01 30:39:00
  TRACK 28 AUDIO
    INDEX 01 31:39:69
  TRACK 29 AUDIO
    INDEX 01 33:01:12
  TRACK 30 AUDIO
    INDEX 01 34:16:64
  TRACK 31 AUDIO
    INDEX 01 35:15:70
  TRACK 32 AUDIO
    INDEX 01 36:29:58
  TRACK 33 AUDIO
    INDEX 01 37:38:06
  TRACK 34 AUDIO
    INDEX 01 38:37:12
  TRACK 35 AUDIO
    INDEX 01 39:36:53
  TRACK 36 AUDIO
    INDEX 01 40:40:34
  TRACK 37 AUDIO
    INDEX 01 41:55:34
  TRACK 38 AUDIO
    INDEX 01 42:57:24
  TRACK 39 AUDIO
    INDEX 01 44:16:05
  TRACK 40 AUDIO
    INDEX 01 45:34:61
  TRACK 41 AUDIO
    INDEX 01 47:06:52
  TRACK 42 AUDIO
    INDEX 01 48:23:42
  TRACK 43 AUDIO
    INDEX 01 50:01:05
  TRACK 44 AUDIO
    INDEX 01 51:51:52
  TRACK 45 AUDIO
    INDEX 01 52:51:51
  TRACK 46 AUDIO
    INDEX 01 54:06:51
  TRACK 47 AUDIO
    INDEX 01 55:32:71
  TRACK 48 AUDIO
    INDEX 01 56:35:23
  TRACK 49 AUDIO
    INDEX 01 57:50:67
  TRACK 50 AUDIO
    INDEX 01 58:51:28
  TRACK 51 AUDIO
    INDEX 01 60:34:37
  TRACK 52 AUDIO
    INDEX 01 61:53:18
  TRACK 53 AUDIO
    INDEX 01 63:40:72
  TRACK 54 AUDIO
    INDEX 01 64:41:69
  TRACK 55 AUDIO
    INDEX 01 66:05:55
  TRACK 56 AUDIO
    INDEX 01 67:07:47
  TRACK 57 AUDIO
    INDEX 01 68:25:55
  TRACK 58 AUDIO
    INDEX 01 69:26:51
  TRACK 59 AUDIO
    INDEX 01 70:43:36
  TRACK 60 AUDIO
    INDEX 01 71:45:31
  TRACK 61 AUDIO
    INDEX 01 72:47:26
  TRACK 62 AUDIO
    INDEX 01 73:51:16
  TRACK 63 AUDIO
    INDEX 01 74:53:49
  TRACK 64 AUDIO
    INDEX 01 76:28:06
  TRACK 65 AUDIO
    INDEX 01 78:20:06
  TRACK 66 AUDIO
    INDEX 01 79:28:24
Wertung: (6)  
Hinzugefügt: 6 May 2012
RSS Feed
RSS Feed
Sprache
Deutsch Englisch Französisch
Mixsuche
Suchbegriff
Genauer Wortlaut
Alle Worte (UND)
Ein Wort (ODER)
Statistik
12236 Mixe eingetragen
11976 Tracklisten
Newsletter
E-Mail
Anmelden
Abmelden
SPONSOREN