Mixkatalog
 Einloggen
Login
Passwort

Der Deutsche Mix 4 Hits: 296  

Der Deutsche Mix 4


Kurzbeschreibung:
DJ Scooby präsentiert Der Deutsche Mix Teil 4.
 
Crew/DJ: DJ Scooby Reihe: Deutsch
Stil: Deutsch Erscheinungsjahr: 2012
Anzahl Tonträger: 1 Spielzeit: 78:04
Trackliste:
Cue-Informationen:

FILE "filename.mp3" MP3
  TRACK 01 AUDIO
    INDEX 01 00:00:00
  TRACK 02 AUDIO
    INDEX 01 06:54:11
  TRACK 03 AUDIO
    INDEX 01 13:22:64
  TRACK 04 AUDIO
    INDEX 01 16:11:24
  TRACK 05 AUDIO
    INDEX 01 23:32:55
  TRACK 06 AUDIO
    INDEX 01 29:17:46
  TRACK 07 AUDIO
    INDEX 01 35:30:55
  TRACK 08 AUDIO
    INDEX 01 40:59:39
  TRACK 09 AUDIO
    INDEX 01 47:58:20
  TRACK 10 AUDIO
    INDEX 01 54:21:69
  TRACK 11 AUDIO
    INDEX 01 60:50:01
  TRACK 12 AUDIO
    INDEX 01 65:52:22
Wertung: (4)  
Hinzugefügt: 29 April 2012
RSS Feed
RSS Feed
Sprache
Deutsch Englisch Französisch
Mixsuche
Suchbegriff
Genauer Wortlaut
Alle Worte (UND)
Ein Wort (ODER)
Statistik
12236 Mixe eingetragen
11976 Tracklisten
Newsletter
E-Mail
Anmelden
Abmelden
SPONSOREN