Mixkatalog
 Einloggen
Login
Passwort

Deep Dance 043 Hits: 80  

Deep Dance 043


Kurzbeschreibung:
Deep präsentiert Deep Dance Volume 43. Gemixt von DJ Deep. Der Mix erschien im Pappcover.
 
Crew/DJ: Deep Reihe: DD Serie by Deep
Stil: Dance Erscheinungsjahr: 1996
Anzahl Tonträger: 1 Spielzeit: 77:30
Trackliste:
Cue-Informationen:

FILE "filename.mp3" MP3
  TRACK 01 AUDIO
    INDEX 01 00:00:00
  TRACK 02 AUDIO
    INDEX 01 00:49:47
  TRACK 03 AUDIO
    INDEX 01 34:32:12
  TRACK 04 AUDIO
    INDEX 01 36:10:67
  TRACK 05 AUDIO
    INDEX 01 38:23:17
  TRACK 06 AUDIO
    INDEX 01 40:30:15
  TRACK 07 AUDIO
    INDEX 01 42:47:07
  TRACK 08 AUDIO
    INDEX 01 45:39:27
  TRACK 09 AUDIO
    INDEX 01 47:25:47
  TRACK 10 AUDIO
    INDEX 01 50:10:12
  TRACK 11 AUDIO
    INDEX 01 52:12:35
  TRACK 12 AUDIO
    INDEX 01 54:41:45
  TRACK 13 AUDIO
    INDEX 01 57:17:60
  TRACK 14 AUDIO
    INDEX 01 59:06:42
  TRACK 15 AUDIO
    INDEX 01 61:37:40
  TRACK 16 AUDIO
    INDEX 01 64:05:02
  TRACK 17 AUDIO
    INDEX 01 65:31:70
  TRACK 18 AUDIO
    INDEX 01 66:51:30
  TRACK 19 AUDIO
    INDEX 01 68:33:02
  TRACK 20 AUDIO
    INDEX 01 71:32:42
  TRACK 21 AUDIO
    INDEX 01 73:30:07
  TRACK 22 AUDIO
    INDEX 01 75:12:02
Wertung: ()  
Hinzugefügt: 28 December 2009
Bewerte als Erster diesen Mix:
RSS Feed
RSS Feed
Sprache
Deutsch Englisch Französisch
Mixsuche
Suchbegriff
Genauer Wortlaut
Alle Worte (UND)
Ein Wort (ODER)
Statistik
13748 Mixe eingetragen
13445 Tracklisten
Newsletter
E-Mail
Anmelden
Abmelden
SPONSOREN