Mixkatalog
 Einloggen
Login
Passwort

Deep Dance 019 Hits: 1  

Deep Dance 019


Kurzbeschreibung:
Deep Records präsentiert Deep Dance Volume 19. Gemixt von DJ Deep. Der Gold Dust Mix ist im Original der Another Mix Bites The Gold Dust, gemixt von Mike Gray. Der Contaction ist gemixt von Bizzie Bee und erschien bei DMC. Der Love Mix wurde gemixt als Sexual Healing von Bizzie Bee.
 
Crew/DJ: Deep Records Reihe: DD Serie by Deep
Stil: Dance Erscheinungsjahr: 1993
Anzahl Tonträger: 1 Spielzeit: 72:13
Trackliste:
    Deep Dance Take 19:
    Spieldauer 26'34
  1. Dr. Alban - Sing Hallelujah
  2. Amardin & Dr. Alban Alrabaye - Take Me Up
  3. The Good Men - Give It Up
  4. Alex Party - Sunday Night Party
  5. MC Sar & The Real McCoy - Another Night
  6. Dirty Mind - Mamamelo
  7. Eleonore - La Mecanique
  8. A.L. By Bass Bumbers - Fantasy Face
  9. A.R.S. Nova - I Don't Want Your Love
  10. Haddaway - Life
  11. U96 - Night In Motion
  12. Twenty Four Seven - Slave To The Music
  13. Cappella - You Got To Know
  14. Dirty Mind - Back To Future
  15. Friends Connected - Give Us Sound
  16. General Base - Base For Love Part 2
  17. Masterboy - Everybody Needs Somebody
  18. Tatjana Gold - Feel Good
  19. Secchi - A Brighter Day
  20. 2 Unlimited - Tribal Dance
  21. Culture Beat - Got 2 Get It
  22. Deadly Sins - We Are Going On Down
  23. All In Vain - Trancemusic Was Born
  24. Boobytrax - Don't Go
  25. Intrance feat. D-Sign - Dosta
  26. Headbanger - Was Is Techno
  27. Ramirez - Terapia
  28. Space Corp. 1 - Deep In Your Soul
  29. Ramirez - El Gallinero
  30. Mark 'Oh - Never Stop That Feeling
    Gold Dust Mix:
    Spieldauer 9'06
  31. Queen - Another One Bites The Dust
  32. M - Pop Muzik
  33. Paul Evans - Hello This Is Joanie
  34. Doobie Brothers - Listen To The Music
  35. KC & The Sunshine Band - Shake Your Booty
  36. Rod Stewart - Do You Think I'm Sexy
  37. Joe Tex - Ain't Gonna Bomp No More
  38. Blondie - Hearts Of Glass
  39. Viola Wills - Gonna Get Along With You Now
  40. John Paul Young - Love Is In The Air
    Contaction:
    Spieldauer 6'54
  41. Three Degrees - The Runner
  42. Gibson Brothers - Que Sera Mi Vida
  43. Real Thing - Can You Feel The Force
  44. Sheila & B. Devotion - Singin' In The Rain
  45. Voyage - From East To West
  46. Boney M. - Gotta Go Home
  47. Roxy Music - Angel Eyes
  48. Sheila & B. Devotion - Spacer
  49. Sylvester - You Make Me Feel
  50. Frantique - Strut Your Funky Stuff
  51. Edvin Starr - Contact
    Dance Classics:
    Spieldauer 12'30
  52. Erasure - Sometimes
  53. Sister Sledge - Lost In Music
  54. Rick Astley - Never Gonna Give You Up
  55. Culture Club - I'll Tumle For Ya
  56. Pet Shop Boys - West End Girls
  57. Wham! - Everything She Wants
  58. Kylie Minouge - I Should Be So Lucky
  59. Human League - Don't You Want Me
  60. Frankie Goes To Hollywood - Relax
  61. Whitney Houston - I Wanna Dance With Somebody
  62. Whitney Houston - How Will I Know
  63. Bananarama - Love In The First Degree
    Love Mix:
    Spieldauer 11'15
  64. Amii Stewart - Friends
  65. Marvin Gaye - Sexual Healing
  66. Midnight Star - Curious
  67. Gregory Abbott - Shake You Down
  68. Eugene Wilde - Gotta Get You Home With Me Tonight
  69. Kool & The Gang - Cherish
  70. Michael Jackson - Human Nature
    Bonustrack:
    Spieldauer 5'51
  71. Stevie Wonder - Happy Birthday (Remix)
Cue-Informationen:

FILE "filename.mp3" MP3 
  TRACK 01 AUDIO
    INDEX 01 00:00:00
  TRACK 02 AUDIO
    INDEX 01 26:34:60
  TRACK 03 AUDIO
    INDEX 01 35:41:50
  TRACK 04 AUDIO
    INDEX 01 42:36:32
  TRACK 05 AUDIO
    INDEX 01 55:06:65
  TRACK 06 AUDIO
    INDEX 01 66:22:40
Wertung: (1)   Hinzugefügt: 23 December 2009
RSS Feed
RSS Feed
Sprache
Deutsch Englisch Französisch
Mixsuche
Suchbegriff
Genauer Wortlaut
Alle Worte (UND)
Ein Wort (ODER)
Statistik
14860 Mixe eingetragen
14547 Tracklisten
Newsletter
E-Mail
Anmelden
Abmelden
SPONSOREN