Mixkatalog
 Einloggen
Login
Passwort

Deep Dance 015 Hits: 3  

Deep Dance 015


Kurzbeschreibung:
Deep Records präsentiert Deep Dance Volume 15. Gemixt von DJ Deep. Leider gibt es keine Tracklisten mehr dazu. Sunday Morning Nightmare stammt von Mastermix Issue 58.
 
Crew/DJ: Deep Records Reihe: DD Serie by Deep
Stil: Dance Erscheinungsjahr: 1992
Anzahl Tonträger: 1 Spielzeit: 74:07
Trackliste:
    Deep Dance Take 15:
    Spieldauer 28'21
  1. Intro
  2. Sophia - Running So Hard
  3. Montana Sextet feat. Nadiyah - Who Needs Enemies (With A Friend Like You)
  4. Clubland - Set Me Free
  5. Indra - Temptation
  6. Willy Morales - Last Train To London
  7. Oliver Cheatham - Things To Make U Happy
  8. Double You - We All Need Love
  9. Vinegar - Fungi Rhythm
  10. Lee Marrow - I Want Your Love
  11. ???
  12. Right Said Fred - Love For All Seasons
  13. Vamoz - In The Summer
  14. Euphoria - Love You Right
  15. Sydney Fresh - Move Your Body
  16. Bass Bumpers - Can't Stand Still
  17. Army Of Lovers - Judgment Day
  18. Bit Max - Can You Feel It Babe
  19. System - Don't Stop
  20. Rave-Omatic - Revolution
  21. T N'T Party Zone - Vamos A La Playa
  22. Everlyn "Champagne" King - Shame
  23. Dr. Alban - It's My Life
  24. ???
  25. General Base - Back Again
  26. Bass Bumpers - The Music's Got Me
  27. Raul Orellana feat. Jocelyn Brown - Gypsy Rhythm
  28. 2 Unlimited - Workaholic
  29. Mystify ‎- Come To The Party
  30. Outro
    Love Zone 1:
    Spieldauer 28'46
  31. Keith Washington & Kylie Minogue - If You Were With Me Now
  32. Stevie B - I'll Be By Your Side
  33. Stevie B - Because I Love You (The Postman Song)
  34. Baby Bronson - Candyman
  35. Perfect Gentlemen - Ooh La La (I Can't Get Over You)
  36. New Kids On The Block - Let's Try It Again
  37. Grandmaster Slice - Thinking Of You
  38. Black Box - Ghost Box
  39. Marc Almond - Orpheus In Red Velvet
  40. Kenny Thomas - Tender Love
  41. Timmy T - One More Try
  42. Chris De Burgh - The Lady In Red
  43. Glenn Medeiros - Me-U=Blue
  44. Laurie Anderson - O Superman (For Massenet)
  45. Eagles - Hotel California
  46. Milli Vanilli - Girl I'm Gonna Miss You
  47. ???
  48. ???
  49. Yello - Of Course I'm Lying
    Sunday Morning Nightmare:
    Spieldauer 11'59
  50. Rainbow - Since You've Been Gone
  51. Meatloaf - You Took The Words Right Out Of My Mouth
  52. Bon Jovi - You Give Love A Bad Name
  53. Yes - Owner Of A Lonely Heart
  54. Van Halen - Jump
  55. Rainbow - All Night Long
  56. Dire Straits - Money For Nothing
    Bonustrack:
    Spieldauer 5'01
  57. Dimples D. - Sucker DJ (Remix)
Cue-Informationen:

FILE "filename.mp3" MP3 
  TRACK 01 AUDIO
    INDEX 01 00:00:00
  TRACK 02 AUDIO
    INDEX 01 28:21:73
  TRACK 03 AUDIO
    INDEX 01 57:08:38
  TRACK 04 AUDIO
    INDEX 01 69:07:38
Wertung: (1)   Hinzugefügt: 23 December 2009
RSS Feed
RSS Feed
Sprache
Deutsch Englisch Französisch
Mixsuche
Suchbegriff
Genauer Wortlaut
Alle Worte (UND)
Ein Wort (ODER)
Statistik
14860 Mixe eingetragen
14547 Tracklisten
Newsletter
E-Mail
Anmelden
Abmelden
SPONSOREN