Mixkatalog
 Einloggen
Login
Passwort

Deep Dance 013 Hits: 2  

Deep Dance 013


Kurzbeschreibung:
Deep Records präsentiert Deep Dance Volume 13. Gemixt von DJ Deep. Leider gibt es keine Tracklisten mehr dazu. NDW Mix 1 ist ebenfalls auf The Ultimate Of NDW enthalten. Track 3 erschien bei DMC als "Dancefloor 1991".
 
Crew/DJ: Deep Records Reihe: DD Serie by Deep
Stil: Dance Erscheinungsjahr: 1992
Anzahl Tonträger: 1 Spielzeit: 75:24
Trackliste:
    Deep Dance Take 13:
    Spieldauer 23'29
  1. Intro
  2. Purple Schulz - Sehnsucht '91
  3. ???
  4. Kenny Thomas - Best Of You
  5. A.M.P - Piano In The Dark
  6. Genesis - No Son Of Mine
  7. Army Of Lovers - Obsession
  8. Black Box - Open Your Eyes
  9. De La Soul - Keepin' The Faith
  10. Salt 'N Pepa - Let's Talk About Sex
  11. Michael Jackson - Black Or White
  12. Simply Red - Something Got Me Started
  13. LaTour - Involved
  14. Army Of Lovers - Crucified
  15. Chimo Bayo - Asi Me Gusta A Mi
  16. 2 Brothers On The 4th Floor - Turn Da Music Up
  17. East Side Beat - Ride Like The Wind
  18. Dr. Baker - Turn Up The Music
  19. Egma - Let The Bass Kick
  20. Holy Noise - James Brown Is Still Alive
  21. 2 Unlimited - Get Ready For This
  22. Modular Expansion - Cubes
  23. Dangerous Zone - Naughty
  24. R.T.Z. - Dance Your Ass Off
  25. Phenomania - Who Is Elvis
  26. M.N.O - God Of Abraham
  27. Tina Turner - Nutbush City Limits (Nutbush City '91)
  28. Outro
    NDW Mix 1:
    Spieldauer 19'41
  29. Falco - Der Kommissar
  30. Joachim Witt - Kosmetik
  31. Spliff - Das Blech
  32. Fehlfarben - Ein Jahr (Es Geht Voran)
  33. Joachim Witt - Goldener Reiter
  34. Kraftwerk - Das Model
  35. Nina Hagen - Zarah
  36. Spider Murphy Gang - Ich Schau' Dich An
  37. Zaza - Zauberstab
  38. Grauzone - Eisbär
  39. Lilli Berlin - Ost Berlin
  40. Joachim Witt - Tri Tra Trulala
  41. Susi Klinger - Alle Spieler Sind Mir Egal
  42. Rheingold - Dreiklangsdimensionen
  43. Revier Express - Himmelsrock
  44. Combo Colossale - Puppen Weinen Nicht
  45. Andreas Dorau - Fred Vom Jupiter
  46. Zero Zero - Irrenanstalt
  47. Trio - Anna Lass Mich Rein, Lass Mich Raus
  48. Markus - Ich Will Spass
  49. Ina Deter Band - Neue Männer Braucht Das Land
  50. Geier Sturzflug - Bruttosozialprodukt
  51. Fräulein Menke - Hohe Berge
  52. Zoff - Faxen Machen
  53. Peter Schilling - Major Tom
  54. DOF - Codo
  55. Paso Doble - Computerliebe
  56. D.A.F. - Tanz Den Mussolini
    Dancefloor 1991:
    Spieldauer 32'12
  57. Keine Trackliste
Cue-Informationen:

FILE "filename.mp3" MP3 
  TRACK 01 AUDIO
    INDEX 01 00:00:00
  TRACK 02 AUDIO
    INDEX 01 23:31:65
  TRACK 03 AUDIO
    INDEX 01 43:15:33
Wertung: (1)   Hinzugefügt: 23 December 2009
RSS Feed
RSS Feed
Sprache
Deutsch Englisch Französisch
Mixsuche
Suchbegriff
Genauer Wortlaut
Alle Worte (UND)
Ein Wort (ODER)
Statistik
14860 Mixe eingetragen
14547 Tracklisten
Newsletter
E-Mail
Anmelden
Abmelden
SPONSOREN