Mixkatalog
 Einloggen
Login
Passwort

Deep Fox 02 Hits: 353  

Deep Fox 02


Kurzbeschreibung:
Deep präsentiert den Deep Fox Volume 2. Gemixt von DJ Deep.
 
Crew/DJ: Deep Reihe: Deep Fox
Stil: Fox Erscheinungsjahr: 1996
Anzahl Tonträger: 1 Spielzeit: 75:19
Trackliste:
Cue-Informationen:

FILE "filename.mp3" MP3
  TRACK 01 AUDIO
    INDEX 01 00:00:00
  TRACK 02 AUDIO
    INDEX 01 29:00:05
  TRACK 03 AUDIO
    INDEX 01 35:21:52
  TRACK 04 AUDIO
    INDEX 01 41:01:42
  TRACK 05 AUDIO
    INDEX 01 45:09:45
  TRACK 06 AUDIO
    INDEX 01 52:49:45
  TRACK 07 AUDIO
    INDEX 01 59:49:52
  TRACK 08 AUDIO
    INDEX 01 67:57:37
Wertung: (49)  
Hinzugefügt: 23 December 2009
RSS Feed
RSS Feed
Sprache
Deutsch Englisch Französisch
Mixsuche
Suchbegriff
Genauer Wortlaut
Alle Worte (UND)
Ein Wort (ODER)
Statistik
12778 Mixe eingetragen
12508 Tracklisten
Newsletter
E-Mail
Anmelden
Abmelden
SPONSOREN