Mixkatalog
 Einloggen
Login
Passwort

Big Mix The 12th Story Hits: 348  

Kein Bild


Kurzbeschreibung:
DJ Adamski präsentiert Big-Mix The 12th Story. Mix erschien als Kick FM Yearmix 2011. Das ist die verlängerte Version auf CD.
 
Crew/DJ: DJ Adamski Reihe: Big-Mix
Stil: Dance Erscheinungsjahr: 2012
CDs: 1 Spielzeit: 68:37
Trackliste:
Cue-Informationen:

FILE "filename.mp3" MP3
  TRACK 01 AUDIO
    INDEX 01 00:00:00
  TRACK 02 AUDIO
    INDEX 01 06:11:00
  TRACK 03 AUDIO
    INDEX 01 12:43:32
  TRACK 04 AUDIO
    INDEX 01 18:45:19
  TRACK 05 AUDIO
    INDEX 01 24:31:05
  TRACK 06 AUDIO
    INDEX 01 30:26:57
  TRACK 07 AUDIO
    INDEX 01 37:41:71
  TRACK 08 AUDIO
    INDEX 01 44:13:51
  TRACK 09 AUDIO
    INDEX 01 50:21:10
  TRACK 10 AUDIO
    INDEX 01 56:21:40
  TRACK 11 AUDIO
    INDEX 01 62:14:33
Wertung: ()  
Hinzugefügt: 9 February 2012
Bewerte als Erster diesen Mix:
RSS Feed
RSS Feed
Sprache
Deutsch Englisch Französisch
Mixsuche
Suchbegriff
Genauer Wortlaut
Alle Worte (UND)
Ein Wort (ODER)
Statistik
29475 Mixe eingetragen
28070 Tracklisten
Newsletter
E-Mail
Anmelden
Abmelden
SPONSOREN