Mixkatalog
 Einloggen
Login
Passwort

The Yearmix Show 2011 Hits: 9  

The Yearmix Show 2011


Kurzbeschreibung:
Sixty-Six Records präsentiert Club 66 The Yearmix Show 2011, gemixt von DJ 66.
 
Crew/DJ: Club 66 Reihe: Yearmix
Stil: Dance Erscheinungsjahr: 2011
CDs: 1 Spielzeit: 76:12
Trackliste:
Cue-Informationen:

FILE "filename.mp3" MP3
  TRACK 01 AUDIO
    INDEX 01 00:00:00
  TRACK 02 AUDIO
    INDEX 01 00:37:42
  TRACK 03 AUDIO
    INDEX 01 08:00:14
  TRACK 04 AUDIO
    INDEX 01 14:47:52
  TRACK 05 AUDIO
    INDEX 01 21:54:63
  TRACK 06 AUDIO
    INDEX 01 30:14:10
  TRACK 07 AUDIO
    INDEX 01 38:24:35
  TRACK 08 AUDIO
    INDEX 01 46:31:72
  TRACK 09 AUDIO
    INDEX 01 53:54:54
  TRACK 10 AUDIO
    INDEX 01 59:41:25
  TRACK 11 AUDIO
    INDEX 01 66:27:17
Wertung: (2)  
Hinzugefügt: 5 December 2011
RSS Feed
RSS Feed
Sprache
Deutsch Englisch Französisch
Mixsuche
Suchbegriff
Genauer Wortlaut
Alle Worte (UND)
Ein Wort (ODER)
Statistik
34585 Mixe eingetragen
32707 Tracklisten
Newsletter
E-Mail
Anmelden
Abmelden
SPONSOREN