Mixkatalog
 Einloggen
Login
Passwort

Club Life From Europe 19 Hits: 5  

Club Life From Europe 19


Kurzbeschreibung:
Tom Miles (DJ Thomas) präsentiert Club Life From Europe Volume 19.
 
Crew/DJ: DJ Thomas Reihe: Club Life
Stil: Dance Erscheinungsjahr: 2024
Anzahl Tonträger: 1 Spielzeit: 79:42
Trackliste:
Cue-Informationen:

FILE "filename.mp3" MP3
  TRACK 01 AUDIO
    INDEX 01 00:00:00
  TRACK 02 AUDIO
    INDEX 01 00:41:19
  TRACK 03 AUDIO
    INDEX 01 03:21:28
  TRACK 04 AUDIO
    INDEX 01 04:31:74
  TRACK 05 AUDIO
    INDEX 01 06:28:41
  TRACK 06 AUDIO
    INDEX 01 09:19:61
  TRACK 07 AUDIO
    INDEX 01 11:11:25
  TRACK 08 AUDIO
    INDEX 01 13:28:61
  TRACK 09 AUDIO
    INDEX 01 15:20:08
  TRACK 10 AUDIO
    INDEX 01 17:07:42
  TRACK 11 AUDIO
    INDEX 01 19:45:16
  TRACK 12 AUDIO
    INDEX 01 21:58:45
  TRACK 13 AUDIO
    INDEX 01 25:07:43
  TRACK 14 AUDIO
    INDEX 01 28:42:03
  TRACK 15 AUDIO
    INDEX 01 30:26:26
  TRACK 16 AUDIO
    INDEX 01 33:17:00
  TRACK 17 AUDIO
    INDEX 01 35:34:74
  TRACK 18 AUDIO
    INDEX 01 39:37:65
  TRACK 19 AUDIO
    INDEX 01 42:22:19
  TRACK 20 AUDIO
    INDEX 01 45:08:49
  TRACK 21 AUDIO
    INDEX 01 49:03:32
  TRACK 22 AUDIO
    INDEX 01 52:44:15
  TRACK 23 AUDIO
    INDEX 01 55:46:11
  TRACK 24 AUDIO
    INDEX 01 59:08:31
  TRACK 25 AUDIO
    INDEX 01 61:26:43
  TRACK 26 AUDIO
    INDEX 01 64:12:28
  TRACK 27 AUDIO
    INDEX 01 67:30:42
  TRACK 28 AUDIO
    INDEX 01 70:12:20
  TRACK 29 AUDIO
    INDEX 01 73:26:61
  TRACK 30 AUDIO
    INDEX 01 74:26:29
  TRACK 31 AUDIO
    INDEX 01 77:03:17
Wertung: (1)   Hinzugefügt: 17 February 2024
Mixsuche
Suchbegriff
Genauer Wortlaut
Alle Worte (UND)
Ein Wort (ODER)
SPONSOREN