Mixkatalog
 Einloggen
Login
Passwort

D.J. Time Best Of 2022 Hits: 3  

D.J. Time Best Of 2022


Kurzbeschreibung:
DJ Hot J präsentiert den Mix DJ Time Best Of 2022.
 
Crew/DJ: DJ Hot J Reihe: DJ Time
Stil: House Erscheinungsjahr: 2022
Anzahl Tonträger: 1 Spielzeit: 76:57
Trackliste:
  1. DJ Hot J - Intro
  2. Purple Disco Machine & Sophie & The Giants - In The Dark (Extended Mix)
  3. Tensnake - Coma Cat (Purple Disco Machine Extended Re-Work)
  4. Superlover - Dance (To The Beat) (Extended Kronan Remix)
  5. Armand van Helden x Karen Harding - Wings (I Won't Let You Down) (Club Mix)
  6. Salvatore Ganacci X Buy Now! - Let You Do This (Extended Mix)
  7. Diplo feat. Miguel - Don't Forget My Love (Extended)
  8. James Hype feat. Miggy Dela Rosa - Ferrari (Oliver Heldens Extended Remix)
  9. Öwnboss X Sevek - Move Your Body (Extended Mix)
  10. Oliver Heldens X Nile Rodgers feat. House Gospel Choir - I Was Made For Lovin You (Extended)
  11. John Summit - La Danza (Extended Mix)
  12. Shouse - Won't Forget You (Amice Remix)
  13. Felix Jaehn & The Stickmen Project feat. Calum Scott - Rain In Ibiza (Extended Mix)
  14. Tiësto feat. Tate McRae - 10'35 (Tiësto's New Year's Eve Extended VIP Remix)
  15. Jax Jones feat. MNEK - Where Did You Go? (Extended Mix)
  16. Calvin Harris, Justin Timberlake, Halsey, Pharrell - Stay With Me (Amice Remix)
  17. Timmy Trumpet - Just In Case (Extended Mix)
  18. Meduza X James Carter feat. Elley Duhé - Bad Memories (Extended Version)
  19. David Guetta feat. Bebe Rexha - I'm Good (Blue) (Extended Mix)
  20. Armin van Buuren X R3hab feat. Simon Ward - Love We Lost (VIP Extended Mix)
  21. Kungs - Clap Your Hands (Robin Schulz Remix)
  22. Alesso & Deniz Koyu - In My Feelings (Extended Mix)
  23. Topic & Robin Schulz X Nico Santos & Paul van Dyk - In Your Arms (Extended Mix)
Cue-Informationen:

PERFORMER "Va"
TITLE "D.J. Time Best Of 2022 (Mixed By D.J. Hot J)"
FILE "01-va-d.j._time_best_of_2022_(mixed_by_d.j._hot_j).mp3" MP3
  TRACK 01 AUDIO
    TITLE "Intro"
    PERFORMER "DJ Hot J"
    INDEX 01 00:00:00
  TRACK 02 AUDIO
    TITLE "In The Dark (Extended Mix)"
    PERFORMER "Purple Disco Machine & Sophie & The Giants"
    INDEX 01 00:17:43
  TRACK 03 AUDIO
    TITLE "Coma Cat (Purple Disco Machine Extended Re-Work)"
    PERFORMER "Tensnake"
    INDEX 01 04:34:70
  TRACK 04 AUDIO
    TITLE "Dance (To The Beat) (Extended Kronan Remix)"
    PERFORMER "Superlover"
    INDEX 01 08:38:28
  TRACK 05 AUDIO
    TITLE "Wings (I Won't Let You Down) (Club Mix)"
    PERFORMER "Armand van Helden x Karen Harding"
    INDEX 01 12:02:27
  TRACK 06 AUDIO
    TITLE "Let You Do This (Extended Mix)"
    PERFORMER "Salvatore Ganacci X Buy Now!"
    INDEX 01 16:41:05
  TRACK 07 AUDIO
    TITLE "Don't Forget My Love (Extended)"
    PERFORMER "Diplo feat. Miguel"
    INDEX 01 20:48:04
  TRACK 08 AUDIO
    TITLE "Ferrari (Oliver Heldens Extended Remix)"
    PERFORMER "James Hype feat. Miggy Dela Rosa"
    INDEX 01 24:55:73
  TRACK 09 AUDIO
    TITLE "Move Your Body (Extended Mix)"
    PERFORMER "Öwnboss X Sevek"
    INDEX 01 28:33:23
  TRACK 10 AUDIO
    TITLE "I Was Made For Lovin You (Extended)"
    PERFORMER "Oliver Heldens X Nile Rodgers feat. House Gospel
Choir"
    INDEX 01 30:51:64
  TRACK 11 AUDIO
    TITLE "La Danza (Extended Mix)"
    PERFORMER "John Summit"
    INDEX 01 34:41:04
  TRACK 12 AUDIO
    TITLE "Won't Forget You (Amice Remix)"
    PERFORMER "Shouse"
    INDEX 01 38:17:22
  TRACK 13 AUDIO
    TITLE "Rain In Ibiza (Extended Mix)"
    PERFORMER "Felix Jaehn & The Stickmen Project feat. Calum Scott"
    INDEX 01 41:36:27
  TRACK 14 AUDIO
    TITLE "10:35 (Tiësto's New Year's Eve Extended VIP Remix)"
    PERFORMER "Tiësto feat. Tate McRae"
    INDEX 01 44:25:69
  TRACK 15 AUDIO
    TITLE "Where Did You Go? (Extended Mix)"
    PERFORMER "Jax Jones feat. MNEK"
    INDEX 01 47:45:45
  TRACK 16 AUDIO
    TITLE "Stay With Me (Amice Remix)"
    PERFORMER "Calvin Harris, Justin Timberlake, Halsey, Pharrell"
    INDEX 01 51:28:23
  TRACK 17 AUDIO
    TITLE "Just In Case (Extended Mix)"
    PERFORMER "Timmy Trumpet"
    INDEX 01 55:17:02
  TRACK 18 AUDIO
    TITLE "Bad Memories (Extended Version)"
    PERFORMER "Meduza X James Carter feat. Elley Duhé"
    INDEX 01 58:12:16
  TRACK 19 AUDIO
    TITLE "I'm Good (Blue) (Extended Mix)"
    PERFORMER "David Guetta feat. Bebe Rexha"
    INDEX 01 60:52:13
  TRACK 20 AUDIO
    TITLE "Love We Lost (VIP Extended Mix)"
    PERFORMER "Armin van Buuren X R3HAB feat. Simon Ward"
    INDEX 01 64:32:56
  TRACK 21 AUDIO
    TITLE "Clap Your Hands (Robin Schulz Remix)"
    PERFORMER "Kungs"
    INDEX 01 67:55:03
  TRACK 22 AUDIO
    TITLE "In My Feelings (Extended Mix)"
    PERFORMER "Alesso & Deniz Koyu"
    INDEX 01 70:57:65
  TRACK 23 AUDIO
    TITLE "In Your Arms (Extended Mix)"
    PERFORMER "Topic & Robin Schulz X Nico Santos & Paul van Dyk"
    INDEX 01 74:08:27
Wertung: (1)   Hinzugefügt: 9 January 2023
RSS Feed
RSS Feed
Sprache
Deutsch Englisch Französisch
Mixsuche
Suchbegriff
Genauer Wortlaut
Alle Worte (UND)
Ein Wort (ODER)
Statistik
15023 Mixe eingetragen
14705 Tracklisten
Newsletter
E-Mail
Anmelden
Abmelden
SPONSOREN