Mixkatalog
 Einloggen
Login
Passwort

Kamannmix 85 Hits: 2  

Kamannmix 85


Kurzbeschreibung:
Theo Kamann präsentiert den Kamannmix Volume 85 (The Yearmix 2022).
 
Crew/DJ: Theo Kamann Reihe: Kamannmix
Stil: Pop Erscheinungsjahr: 2022
Anzahl Tonträger: 1 Spielzeit: 79:23
Trackliste:
  1. Theo Kamann - Intro
  2. Sam Smith & Kim Petras - Unholy
  3. Nina Chuba - Wildberry Lillet
  4. Juice Wrld & Justin Bieber - Wandered To La
  5. Selena Gomez - My Mind & Me
  6. Ella Henderson - Brave
  7. Coldplay - Biutyful
  8. Söhne Mannheims - Keine Eile
  9. Adel Tawil - Menschenkinder
  10. Lea & Luna - Küsse Wie Gift
  11. Sia - 3 Minutes Til New Years
  12. The Kid Laroi - Thousand Miles
  13. Adel Tawil & Bozza - Labyrinth
  14. Zoe Wees - Lonely
  15. Sido - Versager
  16. Tate Mcrae - Uh Oh
  17. Rihanna - Lift Me Up
  18. Imanbek, Wiz Khalifa, Kddk feat. Kiddo - Ordinary Life
  19. Ray Dalton - The Best Is Yet To Come
  20. Clockclock - Sorry
  21. Laurell - Love It
  22. Michael Patrick Kelly X Rea Garvey - Best Bad Friend
  23. Tim Bendzko - Wer Rettet Die Welt Für Mich
  24. Paula Jivén - Say That
  25. Taylor Swift - Anti-Hero
  26. Calvin Harris, Dua Lipa & Young Thug - Potion
  27. Alok & Alan Walker feat. Kiddo - Headlights
  28. Charlie Puth feat. Jung Kook Of BTS - Left & Right
  29. Post Malone feat. Doja Cat - I Like You
  30. Fireboy Dml & Asake - Bandana
  31. Sido - Liebst Du Mich
  32. Ellie Goulding feat. Big Sean - Easy Lover
  33. Kygo feat. Dnce - Dancing Feet
  34. Kygo, Gryffin, Calum Scott - Woke Up In Love
  35. Latto & Mariah Carey feat. DJ Khaled - Big Energy
  36. Lukas Graham feat. Khalid - Wish You Were Here
  37. Rema - Calm Down
  38. Lizzo - About Damn Time
  39. Burak Yeter & Atcg - Too Good
  40. Lena - Looking For Love
  41. Juli - Fette Wilde Jahre
  42. Rosa Linn - Snap
  43. Imagine Gragons - Bones
  44. Ava Max - Dancing's Done
  45. Pink - Never Gonna Not Dance Again
  46. Beyoncé - Break My Soul
  47. Adel Tawil - Autobahn
  48. Tove Lo - 2 Die 4
  49. Tiësto & Tate Mcrae - 10'35
  50. Purple Disco Maschine feat. Sophie & The Giants - In The Dark
  51. Alvaro Soler X Topic - Solo Para Ti
  52. Regard feat. Kwabs - Signals
  53. Gattüso - Bad Decisions
  54. Post Malone - Wrapped Around Your Finger
  55. R3hab & Laidback Luke - Weekend On A Tuesday
  56. Benny Blanco, BTS & Snoop Dogg - Bad Decisions
  57. Remady - Melody
  58. Diplo & Miguel - Don't Forget My Love
  59. Imanbek & Byor - Belly Dancer
  60. Ofenbach feat. Fast Boy - Love Me Now
  61. Younotus X Willy William feat. Malik Harris & Minelli - Enchanté
  62. Nicky Youre - Sunroof
  63. Ed Sheeran, Pokémon - Celestial
  64. David Guetta, Becky Hill & Ella Henderson - Crazy What Love Can Do
  65. Alok, Sigala & Ellie Goulding - All By Myself
  66. Nils van Zandt & Pakito - Are You Ready
  67. Joel Corry & Becky Hill - History
  68. Surf Mesa & Nat Dunn - State Of My Heart
  69. Robin Schulz & David Guetta - On Repeat
  70. Tiësto & Charli XCX - Hot In It
  71. Sigala - Melody
  72. Jonas Blue & Why Don't We - Don't Wake Me Up
  73. Glockenbach feat. Ásdís - Dirty Dancing
  74. Dimitri Vegas & Like Mike, R3hab & Prezioso - Shooting Darts
  75. Jaymes Young - Infinity
  76. Jonas Blue, Louisa Johnson - Always Be There
  77. Felix Jaehn & The Stickmen Project feat. Calum Scott - Rain In Ibiza
  78. Alex Parker & Francis On My Mind - Love The Way You Lie
  79. Alok feat. Nonô - Sky High
  80. Steve Modaana & Freischwimmer - You Can't Buy My Like
  81. Becky Hill & Galantis - Run
  82. Milky Chance - Synchronize
  83. Keanu Silva, Toby Romeo, Sacha - Hopeless Heart
  84. Nathan Dawe, Ella Henderson - 21 Reasons
  85. Alle Farben & Moss Kena - Forgot How To Love
  86. Måneskin - Supermodel
  87. Öwnboss & Fast Boy - Left & Right
  88. Sigala, Talia Mar - Stay The Night
  89. George Ezra - Dance All Over Me
  90. Raffa Fl - Ritmo
  91. Stefanie Heinzmann X HBz X Hauz - Come On Over
  92. DJ Bobo - Together We Fly
  93. Ava Max - Million Dollar Baby
  94. Öwnboss, Sevek - Move Your Body
  95. Alle Farben feat. Pollyanna - Let It Rain Down
  96. Alesso & Katy Perry - When I'm Gone
  97. Lady Gaga - Hold My Hand
  98. Sigala X David Guetta X Sam Ryder - Living Without You
  99. Peter Fox feat. Inéz - Zukunft Pink
  100. Twocolors - Heavy Metal Love
  101. Punctual feat. World's First Cinema - Castles
  102. Ali Bakgor & Giorgio Gee feat. Wonder Wrld - Don't Wanna Lose
  103. Silbermond - Auf Auf
  104. Sigala X Gabry Ponte X Alex Gaudino - Rely On Me
  105. Black Eyed Peas, Daddy Yankee - Bailar Contigo
  106. Alok, Ella Eyre & Kenny Dope feat. Never Dull - Deep Down
  107. Robin Schulz & Tom Walker - Sun Will Shine
  108. Topic, A7S - Kernkraft 400 (A Better Day)
  109. Elton John & Britney Spears - Hold Me Closer
  110. Timmy Trumpet - Just In Case
  111. Joel Corry & Tom Grennan - Lionheart (Fearless)
  112. Calvin Harris feat. Justin Timberlake, Halsey, Pharrell - Stay With Me
  113. Pink Panda feat. Elize - I Like It
  114. Topic, Robin Schulz, Nico Santos, Paul van Dyk - In Your Arms (For An Angel)
  115. Jax Jones feat. Mnek - Where Did You Go
  116. David Guetta feat. Bebe Rexa - I'm Good
  117. K-391, Victor Crone - Lonely World
  118. Younotus feat. Louis III - Samba
  119. Kamrad - I Believe
  120. Ray Dalton X Alvaro Soler - Manila
  121. Shawn Mendes - When You're Gone
  122. Ana Mena - Mezzanotte
  123. R.I.O. X Kyanu feat. Chris Alain - All My Love
  124. Black Eyed Peas, Shakira, David Guetta - Don't You Worry
  125. Shakira, Ozuna - Monotonía
  126. Clockclock - Someone Else
  127. OneRepublic - West Coast
  128. Alma - Summer Really Hurt Us
  129. Nina Chuba - Glatteis
  130. Southstar - Backseat
  131. DJ Robin & Schürze - Layla
  132. Oliver Tree, Robin Schulz - Miss You
  133. Bow Anderson - 20S
  134. Kris Kross Amsterdam X Kati K X Gregor Hägele - Rückwärtsgang
  135. Fury In The Slaughterhouse - Better Times Will Come
  136. Leony - Remedy
Cue-Informationen:

FILE "filename.mp3" MP3
  TRACK 01 AUDIO
    TITLE "Intro"
    PERFORMER "THEO KAMANN"
    INDEX 01 00:00:00
  TRACK 02 AUDIO
    TITLE "Unholy"
    PERFORMER "SAM SMITH & KIM PETRAS"
    INDEX 01 00:19:00
  TRACK 03 AUDIO
    TITLE "Brave"
    PERFORMER "ELLA HENDERSON"
    INDEX 01 02:00:00
  TRACK 04 AUDIO
    TITLE "3 Minutes Til New Years"
    PERFORMER "SIA"
    INDEX 01 04:29:50
  TRACK 05 AUDIO
    TITLE "Versager"
    PERFORMER "SIDO"
    INDEX 01 05:57:40
  TRACK 06 AUDIO
    TITLE "The Best Is Yet To Come"
    PERFORMER "RAY DALTON"
    INDEX 01 07:45:50
  TRACK 07 AUDIO
    TITLE "Wer Rettet Die Welt Für Mich"
    PERFORMER "TIM BENDZKO"
    INDEX 01 09:55:50
  TRACK 08 AUDIO
    TITLE "Headlights"
    PERFORMER "ALOK & ALAN WALKER (feat.KIDDO)"
    INDEX 01 12:11:60
  TRACK 09 AUDIO
    TITLE "Liebst Du Mich"
    PERFORMER "SIDO"
    INDEX 01 14:43:20
  TRACK 10 AUDIO
    TITLE "Big Energy"
    PERFORMER "LATTO & MARIAH CAREY (feat.DJ Khaled)"
    INDEX 01 16:48:60
  TRACK 11 AUDIO
    TITLE "Too Good"
    PERFORMER "BURAK YETER & ATCG"
    INDEX 01 18:21:70
  TRACK 12 AUDIO
    TITLE "Bones"
    PERFORMER "IMAGINE DRAGONS"
    INDEX 01 19:54:20
  TRACK 13 AUDIO
    TITLE "Autobahn"
    PERFORMER "ADEL TAWIL"
    INDEX 01 22:15:60
  TRACK 14 AUDIO
    TITLE "Solo Para Ti"
    PERFORMER "ALVARO SOLER x TOPIC"
    INDEX 01 24:58:60
  TRACK 15 AUDIO
    TITLE "Weekend On A Tuesday"
    PERFORMER "R3HAB & LAIDBACK LUKE"
    INDEX 01 26:50:10
  TRACK 16 AUDIO
    TITLE "Belly Dancer"
    PERFORMER "IMANBEK & BYOR"
    INDEX 01 28:50:70
  TRACK 17 AUDIO
    TITLE "Celestial"
    PERFORMER "ED SHEERAN, POKÉMON"
    INDEX 01 30:50:60
  TRACK 18 AUDIO
    TITLE "History"
    PERFORMER "JOEL CORRY & BECKY HILL"
    INDEX 01 33:56:70
  TRACK 19 AUDIO
    TITLE "Melody"
    PERFORMER "SIGALA"
    INDEX 01 36:20:30
  TRACK 20 AUDIO
    TITLE "Infinity"
    PERFORMER "JAYMES YOUNG"
    INDEX 01 38:46:20
  TRACK 21 AUDIO
    TITLE "Sky High"
    PERFORMER "ALOK (feat.Nonô)"
    INDEX 01 40:34:40
  TRACK 22 AUDIO
    TITLE "Hopeless Heart"
    PERFORMER "KEANU SILVA, TOBY ROMEO, SACHA"
    INDEX 01 43:50:10
  TRACK 23 AUDIO
    TITLE "Left & Right"
    PERFORMER "ÖWNBOSS & FAST BOY"
    INDEX 01 46:03:20
  TRACK 24 AUDIO
    TITLE "Come On Over"
    PERFORMER "STEFANIE HEINZMANN x HBZ x HAUZ"
    INDEX 01 48:21:60
  TRACK 25 AUDIO
    TITLE "Let It Rain Down"
    PERFORMER "ALLE FARBEN (feat.PollyAnna)"
    INDEX 01 50:42:10
  TRACK 26 AUDIO
    TITLE "Zukunft Pink"
    PERFORMER "PETER FOX (FEAT.Inéz)"
    INDEX 01 54:09:00
  TRACK 27 AUDIO
    TITLE "Auf Auf"
    PERFORMER "SILBERMOND"
    INDEX 01 56:04:35
  TRACK 28 AUDIO
    TITLE "Sun Will Shine"
    PERFORMER "ROBIN SCHULZ & TOM WALKER"
    INDEX 01 58:15:00
  TRACK 29 AUDIO
    TITLE "Lionheart (Fearless)"
    PERFORMER "OEL CORRY & TOM GRENNAN"
    INDEX 01 61:40:74
  TRACK 30 AUDIO
    TITLE "Where Did You Go"
    PERFORMER "JAX JONES (feat.MNEK)"
    INDEX 01 65:36:00
  TRACK 31 AUDIO
    TITLE "I Believe"
    PERFORMER "KAMRAD"
    INDEX 01 68:24:20
  TRACK 32 AUDIO
    TITLE "All My Love"
    PERFORMER "R.I.O. X KYANU (feat.Chris Alain)"
    INDEX 01 71:01:36
  TRACK 33 AUDIO
    TITLE "West Coast"
    PERFORMER "ONEREPUBLIC"
    INDEX 01 73:12:70
  TRACK 34 AUDIO
    TITLE "Layla"
    PERFORMER "DJ ROBIN & SCHÜRZE"
    INDEX 01 75:35:70
  TRACK 35 AUDIO
    TITLE "Better Times Will Come"
    PERFORMER "FURY IN THE SLAUGHTERHOUSE"
    INDEX 01 77:54:15
Wertung: (1)   Hinzugefügt: 31 December 2022
RSS Feed
RSS Feed
Sprache
Deutsch Englisch Französisch
Mixsuche
Suchbegriff
Genauer Wortlaut
Alle Worte (UND)
Ein Wort (ODER)
Statistik
15023 Mixe eingetragen
14705 Tracklisten
Newsletter
E-Mail
Anmelden
Abmelden
SPONSOREN