Mixkatalog
 Einloggen
Login
Passwort

Dream Projekt 04 Hits: 3  

Dream Projekt 04


Kurzbeschreibung:
DJ Rik präsentiert seinen neuen Mix mit dem Titel Dream Projekt Volume 4.
 
Crew/DJ: DJ Rik Reihe: Dream Projekt
Stil: Slow Erscheinungsjahr: 2022
Anzahl Tonträger: 1 Spielzeit: 71:23
Trackliste:
  1. DJ Rik - Intro
  2. Yvonne Catterfeld - Broken
  3. Nino De Angelo - Jenseits Von Eden (2021)
  4. Mike Singer - Verdammt Ich Lieb‘ Dich
  5. Mood feat. Iann Dior - 24kGoldn
  6. Robyn - Show Me Love
  7. Pietro Lombardi - Vorbei
  8. Taylor Swift - All Too Well
  9. Lady Gaga & Bradley Cooper - Diggin' My Grave
  10. Vanessa Carlton - A Thousand Miles
  11. Ne-Yo - So Sick
  12. Sophie B. Hawkins - Damn, I Wish I Was Your Lover
  13. Backstreet Boys - All I Have To Give
  14. Starship - Nothing's Gonna Stop Us Now
  15. Lady Gaga & Bradley Cooper - Shallow
  16. Meredith Brooks - Bitch
  17. P.M. Sampson - How I Miss You So
  18. Milli Vanilli - Girl You Know It's True
  19. Backstreet Boys - Quit Playin Games With My Heart
  20. The Kelly Family - Roses Of Red
  21. Laura Branigan - I Found Someone
  22. Maggie Reilly - Everytime We Touch (2021)
  23. Feargal Sharkey - A Good Heart
  24. Tom Grennan - Little Bit Of Love
  25. Lewis Capaldi - Hold Me While You Wait
  26. Max Giesinger - Die Reise
  27. Jennifer Hudson - Spotlight
  28. N Sync - Tearin' Up My Heart
  29. Rea Garvey - The Answer
  30. Scapecher - Vermisse Dich (I'll Be Missing You Remix)
  31. Bruno Mars - Grenade
  32. Lewis Capaldi - Before You Go
  33. Echt - Du Trägst Keine Liebe In Dir
  34. Karat - Der Blaue Planet
  35. Liam Payne & Rita Ora - For You (Fifty Shades Freed)
  36. Lea - Zu Dir
  37. Mark Forster - Liebe
  38. Declan J Donovan - Vienna
  39. Fergie - Big Girls Don't Cry
  40. Clueso - Gewinner
  41. Söhne Mannheims - Augenblick
  42. Jam & Spoon feat. Rea Garvey - Set Me Free
  43. Dermot Kennedy - Power Over Me
  44. Tim Bendzko - Für Immer
  45. Shawn Mendes & Camila Cabello - Señorita
  46. Max Giesinger - Wenn Sie Tanzt
  47. Bonnie Tyler - It's A Heartache
  48. Soul Asylum - Runaway Train
  49. Tom Petty & The Heartbreakers - Learning To Fly
  50. Concrete Blonde - Joey
  51. Rod Stewart - Have You Ever Seen The Rain
  52. Max Giesinger - Legenden
  53. Axel Rudi Pell - Hey Hey My My
Cue-Informationen:

REM ******* 04.08.2022 *******
REM GENRE "Not defined"
TITLE "DJ Rik - Dream Projekt Vol. 04"
FILE "DJ Rik - Dream Projekt Vol. 04.mp3" MP3
  TRACK 01 AUDIO
    TITLE "01. DJ Rik - Intro"
    FLAGS DCP
    INDEX 01 00:00:00
  TRACK 02 AUDIO
    TITLE "02. Yvonne Catterfeld - Broken"
    FLAGS DCP
    INDEX 01 00:28:51
  TRACK 03 AUDIO
    TITLE "03. Nino De Angelo - Jenseits Von Eden (2021)"
    FLAGS DCP
    INDEX 01 01:31:58
  TRACK 04 AUDIO
    TITLE "04. Mike Singer - Verdammt Ich Lieb‘ Dich"
    FLAGS DCP
    INDEX 01 02:45:43
  TRACK 05 AUDIO
    TITLE "05. Mood feat. Iann Dior - 24kGoldn"
    FLAGS DCP
    INDEX 01 03:55:50
  TRACK 06 AUDIO
    TITLE "06. Robyn - Show Me Love"
    FLAGS DCP
    INDEX 01 04:29:66
  TRACK 07 AUDIO
    TITLE "07. Pietro Lombardi - Vorbei"
    FLAGS DCP
    INDEX 01 05:59:22
  TRACK 08 AUDIO
    TITLE "08. Taylor Swift - All Too Well"
    FLAGS DCP
    INDEX 01 06:45:26
  TRACK 09 AUDIO
    TITLE "09. Lady Gaga & Bradley Cooper - Diggin' My Grave"
    FLAGS DCP
    INDEX 01 09:47:40
  TRACK 10 AUDIO
    TITLE "10. Vanessa Carlton - A Thousand Miles"
    FLAGS DCP
    INDEX 01 10:56:68
  TRACK 11 AUDIO
    TITLE "11. Ne-Yo - So Sick"
    FLAGS DCP
    INDEX 01 11:45:64
  TRACK 12 AUDIO
    TITLE "12. Sophie B. Hawkins - Damn, I Wish I Was Your Lover"
    FLAGS DCP
    INDEX 01 12:57:73
  TRACK 13 AUDIO
    TITLE "13. Backstreet Boys - All I Have To Give"
    FLAGS DCP
    INDEX 01 13:59:60
  TRACK 14 AUDIO
    TITLE "14. Starship - Nothing's Gonna Stop Us Now"
    FLAGS DCP
    INDEX 01 14:39:62
  TRACK 15 AUDIO
    TITLE "15. Lady Gaga & Bradley Cooper - Shallow"
    FLAGS DCP
    INDEX 01 16:09:22
  TRACK 16 AUDIO
    TITLE "16. Meredith Brooks - Bitch"
    FLAGS DCP
    INDEX 01 18:34:04
  TRACK 17 AUDIO
    TITLE "17. P.M. Sampson - How I Miss You So"
    FLAGS DCP
    INDEX 01 19:47:32
  TRACK 18 AUDIO
    TITLE "18. Milli Vanilli - Girl You Know It's True"
    FLAGS DCP
    INDEX 01 21:25:19
  TRACK 19 AUDIO
    TITLE "19. Backstreet Boys - Quit Playin Games With My Heart"
    FLAGS DCP
    INDEX 01 22:44:20
  TRACK 20 AUDIO
    TITLE "20. The Kelly Family - Roses Of Red"
    FLAGS DCP
    INDEX 01 25:01:08
  TRACK 21 AUDIO
    TITLE "21. Laura Branigan - I Found Someone"
    FLAGS DCP
    INDEX 01 26:37:55
  TRACK 22 AUDIO
    TITLE "22. Maggie Reilly - Everytime We Touch (2021)"
    FLAGS DCP
    INDEX 01 28:37:14
  TRACK 23 AUDIO
    TITLE "23. Feargal Sharkey - A Good Heart"
    FLAGS DCP
    INDEX 01 30:17:21
  TRACK 24 AUDIO
    TITLE "24. Tom Grennan - Little Bit of Love"
    FLAGS DCP
    INDEX 01 30:54:73
  TRACK 25 AUDIO
    TITLE "25. Lewis Capaldi - Hold Me While You Wait"
    FLAGS DCP
    INDEX 01 32:00:38
  TRACK 26 AUDIO
    TITLE "26. Max Giesinger - Die Reise"
    FLAGS DCP
    INDEX 01 32:56:44
  TRACK 27 AUDIO
    TITLE "27. Jennifer Hudson - Spotlight"
    FLAGS DCP
    INDEX 01 34:16:35
  TRACK 28 AUDIO
    TITLE "28. N Sync - Tearin' Up My Heart"
    FLAGS DCP
    INDEX 01 35:38:05
  TRACK 29 AUDIO
    TITLE "29. Rea Garvey - The Answer"
    FLAGS DCP
    INDEX 01 36:31:58
  TRACK 30 AUDIO
    TITLE "30. Scapecher - Vermisse Dich (I'll be Missing You Remix)"
    FLAGS DCP
    INDEX 01 37:43:74
  TRACK 31 AUDIO
    TITLE "31. Bruno Mars - Grenade"
    FLAGS DCP
    INDEX 01 39:02:46
  TRACK 32 AUDIO
    TITLE "32. Lewis Capaldi - Before You Go"
    FLAGS DCP
    INDEX 01 41:06:44
  TRACK 33 AUDIO
    TITLE "33. Echt - Du Trägst keine Liebe In Dir"
    FLAGS DCP
    INDEX 01 42:39:04
  TRACK 34 AUDIO
    TITLE "34. Karat - Der blaue Planet"
    FLAGS DCP
    INDEX 01 44:23:57
  TRACK 35 AUDIO
    TITLE "35. Liam Payne & Rita Ora - For You (Fifty Shades Freed) "
    FLAGS DCP
    INDEX 01 46:05:40
  TRACK 36 AUDIO
    TITLE "36. Lea - Zu Dir"
    FLAGS DCP
    INDEX 01 46:53:65
  TRACK 37 AUDIO
    TITLE "37. Mark Forster - Liebe"
    FLAGS DCP
    INDEX 01 47:27:51
  TRACK 38 AUDIO
    TITLE "38. Declan J Donovan - Vienna"
    FLAGS DCP
    INDEX 01 48:32:14
  TRACK 39 AUDIO
    TITLE "39. Fergie - Big Girls Don't Cry"
    FLAGS DCP
    INDEX 01 49:41:72
  TRACK 40 AUDIO
    TITLE "40. Clueso - Gewinner"
    FLAGS DCP
    INDEX 01 51:16:65
  TRACK 41 AUDIO
    TITLE "41. Söhne Mannheims - Augenblick"
    FLAGS DCP
    INDEX 01 52:47:40
  TRACK 42 AUDIO
    TITLE "42. Jam & Spoon feat. Rea Garvey - Set Me Free"
    FLAGS DCP
    INDEX 01 53:56:70
  TRACK 43 AUDIO
    TITLE "43. Dermot Kennedy - Power Over Me"
    FLAGS DCP
    INDEX 01 55:41:17
  TRACK 44 AUDIO
    TITLE "44. Tim Bendzko - Für Immer"
    FLAGS DCP
    INDEX 01 56:40:20
  TRACK 45 AUDIO
    TITLE "45. Shawn Mendes & Camila Cabello - Señorita"
    FLAGS DCP
    INDEX 01 57:04:54
  TRACK 46 AUDIO
    TITLE "46. Max Giesinger - Wenn Sie Tanzt"
    FLAGS DCP
    INDEX 01 58:40:01
  TRACK 47 AUDIO
    TITLE "47. Bonnie Tyler - It's A Heartache"
    FLAGS DCP
    INDEX 01 60:48:50
  TRACK 48 AUDIO
    TITLE "48. Soul Asylum - Runaway Train"
    FLAGS DCP
    INDEX 01 62:20:18
  TRACK 49 AUDIO
    TITLE "49. Tom Petty & The Heartbreakers - Learning To Fly"
    FLAGS DCP
    INDEX 01 63:35:40
  TRACK 50 AUDIO
    TITLE "50. Concrete Blonde - Joey"
    FLAGS DCP
    INDEX 01 65:12:62
  TRACK 51 AUDIO
    TITLE "51. Rod Stewart - Have You Ever Seen The Rain"
    FLAGS DCP
    INDEX 01 66:25:66
  TRACK 52 AUDIO
    TITLE "52. Max Giesinger - Legenden"
    FLAGS DCP
    INDEX 01 67:19:52
  TRACK 53 AUDIO
    TITLE "53. Axel Rudi Pell - Hey Hey My My"
    FLAGS DCP
    INDEX 01 68:17:13
Wertung: (2)   Hinzugefügt: 13 August 2022
RSS Feed
RSS Feed
Sprache
Deutsch Englisch Französisch
Mixsuche
Suchbegriff
Genauer Wortlaut
Alle Worte (UND)
Ein Wort (ODER)
Statistik
14860 Mixe eingetragen
14547 Tracklisten
Newsletter
E-Mail
Anmelden
Abmelden
SPONSOREN