Mixkatalog
 Einloggen
Login
Passwort

The 036th Story Hits: 3  

The 036th Story


Kurzbeschreibung:
...And The Beat Goes On, Studio 33 The 36th Story, gemixt von DJ Summer. Nach dem Ende der usprünglichen Reihe wird diese von diversen Mixern fortgeführt.
 
Crew/DJ: Studio 33 Reihe: Story
Stil: Dance Erscheinungsjahr: 2000
Anzahl Tonträger: 1 Spielzeit: 73:26
Trackliste:
  1. Intro
  2. Zorotl - I Wanna Be
  3. Darude - Sandstorm
  4. Sonique - It Feels So Good
  5. Yamboo - Torero
  6. DJ Flex - Are You Ready
  7. Vengaboys - Cheekah Bow Bow
  8. Floorfilla - Anthem 4
  9. Sound Convoy - Hay Baby
  10. Das Bo - Türlich, Türlich-Sicher Dicker
  11. Pulsedriver - Your Spirit Is Shining
  12. Alice Deejay - The Lonely One
  13. Blümchen - Die Welt Gehört Mir
  14. Aquagen & Ingo Appelt - Tanz Für Mich
  15. Marc Et Claude - I Need Your Lovin'
  16. Prezioso feat. Marvin - Voices
  17. Re-Flex - Lui
  18. Unconditional - Magic Fett
  19. Eiffel 65 - One Goal
  20. Samanta - Get On Up & Dance
  21. Craig David - Fill Me In
  22. 4 Factory - Give Me More
  23. Dr. Fummel - Ententanz
  24. Aqua - Bumble Bees
  25. Miranda - Eldorado
  26. DJ Flex - Are You Ready
  27. Gigi D'Agostino - L'Amours Toujours
  28. Hermes House Band - Disco Samba Part II
  29. ATB vs. York - Promo
  30. Melanie C. - I Turn To You
  31. Grandmaster Flash - If You Wanna Party
  32. Soundlovers - Wonderful Life
  33. Tony Sweat - Sex Machine
  34. Gala - Everyone Has Inside
  35. 2 Eivissa - Viva La Fiesta
  36. DJ Piccolo - Spring Let Me See
  37. Azuca - Este Chico
  38. Flickman - Sound Of Bamboo
  39. Alex Party - U Gotta Be
  40. No Name - Off
  41. C.O.P. Project - Pornostar
  42. Nicole Brand - Together
  43. Unique II - Forever
  44. Maroma - La Luna
  45. Miss - Banzai
  46. Antonia feat. Sandra - ...Ich Bin Viel Schöner
  47. Brahama - Future Woman
  48. Sash! - With My Own Eyes
  49. Beam vs. Cyrus - Thunder In Paradise
  50. Vanilla Ice - Ice Ice Baby 2001
  51. Junkfood Kunkies - Hands Up
  52. Warp Brothers vs. Aquagen - Phatt Base
  53. Dave 202 feat. Boris G. - Believe In Love
  54. Lovestern Galaktika Project - Loca Galaktika
  55. Black & Jones - DJ Culture
  56. Cut Masters - Front To The Back
  57. The Act - Something About U
  58. Daisy Dee - Open Sesame
  59. N'Sync - It's Gonna Be Me
  60. Mauro Picotto - Komodo
  61. Destiny's Child - Jumpin, Jumpin
  62. Five vs. Queen - We Will Rock You
  63. Aalyah - Try Again
  64. Andrea & John - Gewinner
  65. Britney Spears - Lucky
  66. Dr. Dre - The Next Episode
  67. Janet Jackson - Doesn't Really Matter
  68. DJ Tomekk - Ich Lebe Für Hip Hop
  69. 7 Inch Project - All I Want To Know
  70. Whitney Houston - If I Told You That
  71. No Mercy - Morena
  72. Solid Base - Come On Everybody
  73. Robbie Williams - Rock DJ
  74. Limp Bizkit - Take A Look Around
  75. Marque - One To Make Her Happy
  76. Chicane - No Ordinairy Morning
  77. Bloodhound Gang - Mope
  78. Christina Aguilera - Come On Over
  79. Madonna - Music
  80. Kylie Minogue - Spinning Around
  81. Black Legend - You See The Trouble With Me
  82. Ultra Nate - Sedire
  83. Paola & Chiara - Vamos A Bailar
  84. Tatjana - Baila Baila
  85. Laid Back - Sunshine Reggae 2000
  86. Andru Donalds - Precious Little Diamonds
  87. Dominica - Gotta Let You Go
  88. Gardeweg - Push
  89. Twin - A New Day
Cue-Informationen:

FILE "filename.mp3" MP3
  TRACK 01 AUDIO
    INDEX 01 00:00:00
  TRACK 02 AUDIO
    INDEX 01 01:34:67
  TRACK 03 AUDIO
    INDEX 01 02:45:32
  TRACK 04 AUDIO
    INDEX 01 03:41:60
  TRACK 05 AUDIO
    INDEX 01 04:37:64
  TRACK 06 AUDIO
    INDEX 01 05:40:66
  TRACK 07 AUDIO
    INDEX 01 06:36:63
  TRACK 08 AUDIO
    INDEX 01 07:18:55
  TRACK 09 AUDIO
    INDEX 01 08:13:25
  TRACK 10 AUDIO
    INDEX 01 09:07:74
  TRACK 11 AUDIO
    INDEX 01 10:03:68
  TRACK 12 AUDIO
    INDEX 01 11:06:01
  TRACK 13 AUDIO
    INDEX 01 11:53:46
  TRACK 14 AUDIO
    INDEX 01 13:05:33
  TRACK 15 AUDIO
    INDEX 01 14:14:51
  TRACK 16 AUDIO
    INDEX 01 15:27:56
  TRACK 17 AUDIO
    INDEX 01 16:26:06
  TRACK 18 AUDIO
    INDEX 01 17:09:66
  TRACK 19 AUDIO
    INDEX 01 18:07:15
  TRACK 20 AUDIO
    INDEX 01 19:04:70
  TRACK 21 AUDIO
    INDEX 01 19:34:29
  TRACK 22 AUDIO
    INDEX 01 21:11:61
  TRACK 23 AUDIO
    INDEX 01 22:23:67
  TRACK 24 AUDIO
    INDEX 01 23:56:01
  TRACK 25 AUDIO
    INDEX 01 24:53:31
  TRACK 26 AUDIO
    INDEX 01 26:14:05
  TRACK 27 AUDIO
    INDEX 01 27:27:27
  TRACK 28 AUDIO
    INDEX 01 28:57:07
  TRACK 29 AUDIO
    INDEX 01 30:25:66
  TRACK 30 AUDIO
    INDEX 01 31:18:01
  TRACK 31 AUDIO
    INDEX 01 32:29:31
  TRACK 32 AUDIO
    INDEX 01 33:49:55
  TRACK 33 AUDIO
    INDEX 01 35:04:60
  TRACK 34 AUDIO
    INDEX 01 35:37:43
  TRACK 35 AUDIO
    INDEX 01 36:55:13
  TRACK 36 AUDIO
    INDEX 01 38:07:50
  TRACK 37 AUDIO
    INDEX 01 38:50:28
  TRACK 38 AUDIO
    INDEX 01 39:11:58
  TRACK 39 AUDIO
    INDEX 01 40:36:63
  TRACK 40 AUDIO
    INDEX 01 41:20:28
  TRACK 41 AUDIO
    INDEX 01 42:59:16
  TRACK 42 AUDIO
    INDEX 01 44:02:58
  TRACK 43 AUDIO
    INDEX 01 45:27:41
  TRACK 44 AUDIO
    INDEX 01 46:45:51
  TRACK 45 AUDIO
    INDEX 01 47:28:28
  TRACK 46 AUDIO
    INDEX 01 48:53:16
  TRACK 47 AUDIO
    INDEX 01 49:06:68
  TRACK 48 AUDIO
    INDEX 01 50:30:47
  TRACK 49 AUDIO
    INDEX 01 51:13:46
  TRACK 50 AUDIO
    INDEX 01 51:56:72
  TRACK 51 AUDIO
    INDEX 01 52:18:12
  TRACK 52 AUDIO
    INDEX 01 52:39:27
  TRACK 53 AUDIO
    INDEX 01 53:20:70
  TRACK 54 AUDIO
    INDEX 01 53:41:12
  TRACK 55 AUDIO
    INDEX 01 54:31:48
  TRACK 56 AUDIO
    INDEX 01 55:21:50
  TRACK 57 AUDIO
    INDEX 01 55:53:62
  TRACK 58 AUDIO
    INDEX 01 56:13:18
  TRACK 59 AUDIO
    INDEX 01 56:32:32
  TRACK 60 AUDIO
    INDEX 01 57:20:34
  TRACK 61 AUDIO
    INDEX 01 58:17:43
  TRACK 62 AUDIO
    INDEX 01 58:36:28
  TRACK 63 AUDIO
    INDEX 01 59:22:71
  TRACK 64 AUDIO
    INDEX 01 60:36:70
  TRACK 65 AUDIO
    INDEX 01 61:41:38
  TRACK 66 AUDIO
    INDEX 01 62:54:64
  TRACK 67 AUDIO
    INDEX 01 63:37:52
  TRACK 68 AUDIO
    INDEX 01 63:54:13
  TRACK 69 AUDIO
    INDEX 01 64:26:16
  TRACK 70 AUDIO
    INDEX 01 65:20:73
  TRACK 71 AUDIO
    INDEX 01 66:23:04
  TRACK 72 AUDIO
    INDEX 01 67:26:29
  TRACK 73 AUDIO
    INDEX 01 68:57:09
  TRACK 74 AUDIO
    INDEX 01 69:27:24
  TRACK 75 AUDIO
    INDEX 01 70:11:27
  TRACK 76 AUDIO
    INDEX 01 70:42:02
  TRACK 77 AUDIO
    INDEX 01 71:56:24
  TRACK 78 AUDIO
    INDEX 01 72:40:51
Wertung: ()   Hinzugefügt: 2 February 2009
Bewerte als Erster diesen Mix:
Mixsuche
Suchbegriff
Genauer Wortlaut
Alle Worte (UND)
Ein Wort (ODER)
SPONSOREN