Mixkatalog
 Einloggen
Login
Passwort

Deep Dance 095 Hits: 2  

Deep Dance 095


Kurzbeschreibung:
Deep Records präsentiert Deep Dance 95, Version 2008. Eine weitere Ausgabe der Edition Reihe. Auch Egypt Reihe oder Serie genannt.
 
Crew/DJ: Deep Records Reihe: DD Serie Edition
Stil: Dance Erscheinungsjahr: 2008
Anzahl Tonträger: 1 Spielzeit: 79:50
Trackliste:
    Deep Dance Take 95:
    Spieldauer 36'22
  1. Intro
  2. Marek - Neverland
  3. DJ Ostkurve vs. Sin With Sebatian - Shut Up
  4. Code Red - 18
  5. DJ Frauenärzte - Leila
  6. The Real Booty Babes - Played A Life
  7. Clubbazz - My Love Your Love
  8. Ivory - Ghostbusters
  9. Future Trance United pres. Cream - You Came
  10. Beatplayerz feat. Lara McAllen - Piece Of Heaven
  11. Topmodelz - When You're Looking Like That
  12. Reanimator feat. Big Daddy - Ice Ice Baby 2008
  13. Bassrockerz vs. Mabra - DJ Play This Song
  14. Alex C. feat. Yass - Ein bisschen Nymhoman
  15. Yanou feat. Mark Daviz - A Girl Like You
  16. Erik Vee - Far Away
  17. De Grees vs. The Real Booty Babes - Apologize
  18. Junkfood Junkies - Everytime
  19. Freddy Fader & Rico - The Riddle
  20. Marc Korn vs. DJ Squared - Summer Of Love 2008
  21. 4 Strings feat. Tina Cousins - Catch A Fall
  22. Liz Kay - True Faith
  23. Cascada - What Do You Want From Me
  24. Scooter - Enola Gay
    Deep Italo 16:
    Spieldauer 23'29
  25. Intro
  26. Gazebo - Ladies
  27. Red DJ feat. A DJ - By My Side
  28. Double Mind - Lonely Times
  29. Clamore Project feat. I Santo California - Tornera 2008
  30. Michael Sembello feat. Sharp & M - Maniac
  31. Colonia - Devotion
  32. Dance Makers - Be My Lover
  33. Italobrothers - Whare You Are Now
  34. Tzvika Pik - Mister DJ
  35. DJ Sanny J - Amore Perfetto
  36. Disc Jockeyz - My Italia
  37. Marc Korn - Summer Of Love
  38. Warm Destiny - Call Me To Fly
  39. DJ Sonic feat. Isis - Fall In Love
  40. Monsieur Louis - Final Stroke
  41. Italian Rockaz - La Donna
    Deep Slow 37:
    Spieldauer 20'00
  42. Intro
  43. Fler - Deutscha Bad Boy
  44. Sheryfa Luna - Il Avaits Les Mots
  45. Rascal Flats - Winner At A Losing Game
  46. Marie Digby - Say It Again
  47. Jay Sean - Ride It
  48. Rakim - Hip Hop
  49. Sean Kingston vs. Bob Marley - No Woman No Cry
  50. Wyclef Jean feat. Akon, Lil Wayne & Nina - Sweetest Girl
  51. Mary J Blige - Work That
  52. Amy Winehouse - Love Is A Losing Game
  53. Joss Stone - Baby Baby Baby
  54. Jimi Blue - All Alone
  55. Leona Lwis - Bleeding Love
  56. Dollarman - All That She Wants
  57. Jonny J - Cant Stop Moving
Cue-Informationen:

FILE "filename.mp3" MP3
  TRACK 01 AUDIO
    INDEX 01 00:00:00
  TRACK 02 AUDIO
    INDEX 01 01:04:65
  TRACK 03 AUDIO
    INDEX 01 36:22:58
  TRACK 04 AUDIO
    INDEX 01 59:51:66
Wertung: (1)   Hinzugefügt: 7 April 2011
RSS Feed
RSS Feed
Sprache
Deutsch Englisch Französisch
Mixsuche
Suchbegriff
Genauer Wortlaut
Alle Worte (UND)
Ein Wort (ODER)
Statistik
14860 Mixe eingetragen
14547 Tracklisten
Newsletter
E-Mail
Anmelden
Abmelden
SPONSOREN