Mixkatalog
 Einloggen
Login
Passwort

Techno Marathon 03 Hits: 507  

Techno Marathon 03


Kurzbeschreibung:
SWG präsentiert Techno Marathon Volume 3. The Ultimate Megamix With 79 Tracks, gemixt von DJ Deep.
 
Crew/DJ: SWG Reihe: Techno Marathon
Stil: Techno Erscheinungsjahr: 2001
Anzahl Tonträger: 2 Spielzeit: 121:20
Trackliste:
Cue-Informationen:

FILE "filename CD 1.mp3" MP3
  TRACK 01 AUDIO
    INDEX 01 00:00:00
  TRACK 02 AUDIO
    INDEX 01 02:19:39
  TRACK 03 AUDIO
    INDEX 01 03:42:38
  TRACK 04 AUDIO
    INDEX 01 05:46:55
  TRACK 05 AUDIO
    INDEX 01 07:36:73
  TRACK 06 AUDIO
    INDEX 01 09:13:18
  TRACK 07 AUDIO
    INDEX 01 11:20:29
  TRACK 08 AUDIO
    INDEX 01 13:32:29
  TRACK 09 AUDIO
    INDEX 01 14:40:49
  TRACK 10 AUDIO
    INDEX 01 16:55:71
  TRACK 11 AUDIO
    INDEX 01 18:06:19
  TRACK 12 AUDIO
    INDEX 01 19:35:32
  TRACK 13 AUDIO
    INDEX 01 20:45:53
  TRACK 14 AUDIO
    INDEX 01 22:02:63
  TRACK 15 AUDIO
    INDEX 01 23:11:33
  TRACK 16 AUDIO
    INDEX 01 24:06:17
  TRACK 17 AUDIO
    INDEX 01 25:43:73
  TRACK 18 AUDIO
    INDEX 01 27:06:34
  TRACK 19 AUDIO
    INDEX 01 28:49:18
  TRACK 20 AUDIO
    INDEX 01 30:23:44
  TRACK 21 AUDIO
    INDEX 01 31:32:27
  TRACK 22 AUDIO
    INDEX 01 33:08:51
  TRACK 23 AUDIO
    INDEX 01 34:17:46
  TRACK 24 AUDIO
    INDEX 01 35:40:15
  TRACK 25 AUDIO
    INDEX 01 37:02:61
  TRACK 26 AUDIO
    INDEX 01 37:57:66
  TRACK 27 AUDIO
    INDEX 01 39:08:31
  TRACK 28 AUDIO
    INDEX 01 40:31:16
  TRACK 29 AUDIO
    INDEX 01 41:53:46
  TRACK 30 AUDIO
    INDEX 01 43:03:74
  TRACK 31 AUDIO
    INDEX 01 44:39:73
  TRACK 32 AUDIO
    INDEX 01 46:46:64
  TRACK 33 AUDIO
    INDEX 01 48:53:52
  TRACK 34 AUDIO
    INDEX 01 50:27:60
  TRACK 35 AUDIO
    INDEX 01 51:59:42
  TRACK 36 AUDIO
    INDEX 01 53:38:27
  TRACK 37 AUDIO
    INDEX 01 55:06:50
  TRACK 38 AUDIO
    INDEX 01 56:51:65
  TRACK 39 AUDIO
    INDEX 01 58:42:33

FILE "filename CD 2.mp3" MP3
  TRACK 01 AUDIO
    INDEX 01 00:00:00
  TRACK 02 AUDIO
    INDEX 01 02:54:72
  TRACK 03 AUDIO
    INDEX 01 04:46:19
  TRACK 04 AUDIO
    INDEX 01 06:34:10
  TRACK 05 AUDIO
    INDEX 01 08:45:43
  TRACK 06 AUDIO
    INDEX 01 10:10:74
  TRACK 07 AUDIO
    INDEX 01 11:35:51
  TRACK 08 AUDIO
    INDEX 01 12:45:70
  TRACK 09 AUDIO
    INDEX 01 14:15:48
  TRACK 10 AUDIO
    INDEX 01 15:52:64
  TRACK 11 AUDIO
    INDEX 01 17:03:24
  TRACK 12 AUDIO
    INDEX 01 18:37:14
  TRACK 13 AUDIO
    INDEX 01 20:00:49
  TRACK 14 AUDIO
    INDEX 01 21:39:39
  TRACK 15 AUDIO
    INDEX 01 22:49:68
  TRACK 16 AUDIO
    INDEX 01 24:00:08
  TRACK 17 AUDIO
    INDEX 01 25:40:18
  TRACK 18 AUDIO
    INDEX 01 28:05:62
  TRACK 19 AUDIO
    INDEX 01 29:27:08
  TRACK 20 AUDIO
    INDEX 01 31:16:40
  TRACK 21 AUDIO
    INDEX 01 32:42:71
  TRACK 22 AUDIO
    INDEX 01 34:27:60
  TRACK 23 AUDIO
    INDEX 01 35:24:23
  TRACK 24 AUDIO
    INDEX 01 36:34:70
  TRACK 25 AUDIO
    INDEX 01 37:31:31
  TRACK 26 AUDIO
    INDEX 01 38:28:32
  TRACK 27 AUDIO
    INDEX 01 39:24:39
  TRACK 28 AUDIO
    INDEX 01 40:48:48
  TRACK 29 AUDIO
    INDEX 01 42:39:69
  TRACK 30 AUDIO
    INDEX 01 44:16:74
  TRACK 31 AUDIO
    INDEX 01 45:39:64
  TRACK 32 AUDIO
    INDEX 01 47:23:50
  TRACK 33 AUDIO
    INDEX 01 49:28:24
  TRACK 34 AUDIO
    INDEX 01 50:51:60
  TRACK 35 AUDIO
    INDEX 01 52:00:61
  TRACK 36 AUDIO
    INDEX 01 53:24:69
  TRACK 37 AUDIO
    INDEX 01 55:05:64
  TRACK 38 AUDIO
    INDEX 01 56:43:15
  TRACK 39 AUDIO
    INDEX 01 58:05:35
  TRACK 40 AUDIO
    INDEX 01 59:14:12
Wertung: (1)  
Hinzugefügt: 18 March 2011
RSS Feed
RSS Feed
Sprache
Deutsch Englisch Französisch
Mixsuche
Suchbegriff
Genauer Wortlaut
Alle Worte (UND)
Ein Wort (ODER)
Statistik
14221 Mixe eingetragen
13912 Tracklisten
Newsletter
E-Mail
Anmelden
Abmelden
SPONSOREN