Mixkatalog
 Einloggen
Login
Passwort

The 028th Story Hits: 3  

The 028th Story


Kurzbeschreibung:
Studio 33 The 28th Story.
 
Crew/DJ: Studio 33 Reihe: Story
Stil: Dance Erscheinungsjahr: 1999
Anzahl Tonträger: 1 Spielzeit: 72:42
Trackliste:
  1. Intro
  2. Lightforce - Eternity
  3. 2 Evissa - I Wanna Be Your Toy
  4. DJ Ceria - Floorfilla Anthem II
  5. Marc van Linden - The Last Unicorn
  6. Signum feat. Scott Mac - Coming On Strong
  7. DJ Disco - Reach To The Top
  8. Kiez Kids - I Found It
  9. Poco Loco Gang - Tropical Paradise
  10. Mix & Magix - Atmen
  11. Watergate - Heart Of Asia
  12. Inferno DJ's - Why Don't You
  13. B-Charme - This Is My World
  14. El Cubano - Go Go Mueve Mueve
  15. Roxette - Stars
  16. Gisami - The Sun Is Burning
  17. York - On The Beach
  18. Secilia - As Good As You
  19. DJ Ceria - Floorfilla Anthem II
  20. Eyes Cream - Fly Away
  21. Phats & Small - Feel Good
  22. Kiez Kids - I Found It
  23. Earth, Wind & Fire - September '99
  24. Avant Garde - Get Down
  25. Boney M. 2000 - Daddy Cool '99
  26. Paps 'N' Skar - You Want My Love
  27. Alexia - Goodbye
  28. Kim Lucas - All I Really Want
  29. Patchal - Gitan
  30. Captain Jack & Gipsy Kings - Get Up
  31. Black & White Brothers - World Wide Party
  32. Nalin & Kane - Open Your Eyes
  33. Tom Wax & Jan Jacarta - The Weekend Of Love
  34. Da Klubb Kings - Everybody Pump It
  35. Class One - Get Back
  36. Blank & Jones - After Love
  37. Beam vs. Cyrus & The Joker - Launch In Progress
  38. Moby - Bodyrock
  39. Yomenda - Synth & Strings
  40. Green Court - Follow Me
  41. D'Agostino - Bla Bla Bla
  42. Nathalie De Borah - High Noon
  43. Ophelia - Under Water
  44. D.O.N.S. - Ritmo Infernal
  45. Danke Anke feat. Georg S. - Tschuldigung
  46. Avancada - Go!
  47. DJ's Unlimited - La Serenissima
  48. Milk Inc. - Oceans
  49. Danke Anke feat. Georg S. - Tschuldigung
  50. DJ Energy & Tatana - End Of Time
  51. Jhava - A Love For You
  52. Plug 'N' Play - Parade 2000
  53. Mix & Magix - Atmen
  54. Scooter - Faster, Harder, Scooter
  55. Precious X Project - Dukkha
  56. Peek A Boo - Bang Bang Baby
  57. Area - Music For Your Eyes
  58. Kosmonova feat. Mike Brings - Acid Folk 2000
  59. R.O.O.S. - Maria
  60. Mellow Trax - Outa Space
  61. Weichei - Is Dir Su Hart?
  62. Christina Aguilera - Genie In A Bottle
  63. TLC - Unpretty
  64. 702 - Where My Girls At?
  65. Fanta 4 - Buenos Dias Messias
  66. R. Kelly - Did You Ever Think
  67. Lutricia McNeal - 365 Days
  68. T-Spoon - Summerlove
  69. Fanta 4 - Le Smou
  70. Enrique Iglesias - Bailamos
  71. Puff Daddy - P.E. 2000
  72. C-Block - Keep Movin
  73. Spike - Responsible
  74. Mr. President - Simbaleo
  75. 5ive - If Ya Gettin' Down
  76. Blue 4 U - Livin' In Jam
  77. Moloko - Sing It Back
  78. Key West - Sorry Sorry Sorry
  79. Texas - Summer Sun
  80. Pete Heller's - Big Love
  81. Gardeweg - This Groove
  82. Tom Novy feat. Virginia - I Rock
Cue-Informationen:

FILE "filename.mp3" MP3
  TRACK 01 AUDIO
    INDEX 01 00:00:00
  TRACK 02 AUDIO
    INDEX 01 00:40:13
  TRACK 03 AUDIO
    INDEX 01 01:07:59
  TRACK 04 AUDIO
    INDEX 01 02:18:03
  TRACK 05 AUDIO
    INDEX 01 03:14:42
  TRACK 06 AUDIO
    INDEX 01 04:17:14
  TRACK 07 AUDIO
    INDEX 01 04:52:15
  TRACK 08 AUDIO
    INDEX 01 05:48:53
  TRACK 09 AUDIO
    INDEX 01 06:30:53
  TRACK 10 AUDIO
    INDEX 01 07:12:15
  TRACK 11 AUDIO
    INDEX 01 08:24:13
  TRACK 12 AUDIO
    INDEX 01 09:44:58
  TRACK 13 AUDIO
    INDEX 01 10:13:35
  TRACK 14 AUDIO
    INDEX 01 11:39:06
  TRACK 15 AUDIO
    INDEX 01 12:21:10
  TRACK 16 AUDIO
    INDEX 01 13:32:62
  TRACK 17 AUDIO
    INDEX 01 14:53:13
  TRACK 18 AUDIO
    INDEX 01 15:37:18
  TRACK 19 AUDIO
    INDEX 01 16:36:12
  TRACK 20 AUDIO
    INDEX 01 17:57:41
  TRACK 21 AUDIO
    INDEX 01 18:59:62
  TRACK 22 AUDIO
    INDEX 01 20:18:59
  TRACK 23 AUDIO
    INDEX 01 21:36:25
  TRACK 24 AUDIO
    INDEX 01 23:08:06
  TRACK 25 AUDIO
    INDEX 01 24:07:30
  TRACK 26 AUDIO
    INDEX 01 25:10:42
  TRACK 27 AUDIO
    INDEX 01 26:56:32
  TRACK 28 AUDIO
    INDEX 01 27:24:45
  TRACK 29 AUDIO
    INDEX 01 28:27:73
  TRACK 30 AUDIO
    INDEX 01 30:05:71
  TRACK 31 AUDIO
    INDEX 01 30:47:56
  TRACK 32 AUDIO
    INDEX 01 31:46:64
  TRACK 33 AUDIO
    INDEX 01 33:09:40
  TRACK 34 AUDIO
    INDEX 01 34:23:29
  TRACK 35 AUDIO
    INDEX 01 35:50:07
  TRACK 36 AUDIO
    INDEX 01 37:30:50
  TRACK 37 AUDIO
    INDEX 01 38:42:64
  TRACK 38 AUDIO
    INDEX 01 40:06:31
  TRACK 39 AUDIO
    INDEX 01 41:57:17
  TRACK 40 AUDIO
    INDEX 01 42:25:62
  TRACK 41 AUDIO
    INDEX 01 44:02:04
  TRACK 42 AUDIO
    INDEX 01 45:15:39
  TRACK 43 AUDIO
    INDEX 01 46:48:30
  TRACK 44 AUDIO
    INDEX 01 48:23:04
  TRACK 45 AUDIO
    INDEX 01 49:44:38
  TRACK 46 AUDIO
    INDEX 01 50:48:37
  TRACK 47 AUDIO
    INDEX 01 52:04:16
  TRACK 48 AUDIO
    INDEX 01 53:42:02
  TRACK 49 AUDIO
    INDEX 01 54:28:67
  TRACK 50 AUDIO
    INDEX 01 55:29:09
  TRACK 51 AUDIO
    INDEX 01 56:13:42
  TRACK 52 AUDIO
    INDEX 01 57:10:19
  TRACK 53 AUDIO
    INDEX 01 58:41:11
  TRACK 54 AUDIO
    INDEX 01 59:37:02
  TRACK 55 AUDIO
    INDEX 01 61:08:30
  TRACK 56 AUDIO
    INDEX 01 62:19:38
  TRACK 57 AUDIO
    INDEX 01 64:03:66
  TRACK 58 AUDIO
    INDEX 01 65:03:56
  TRACK 59 AUDIO
    INDEX 01 66:33:52
  TRACK 60 AUDIO
    INDEX 01 67:51:45
  TRACK 61 AUDIO
    INDEX 01 69:15:72
  TRACK 62 AUDIO
    INDEX 01 69:46:13
  TRACK 63 AUDIO
    INDEX 01 70:16:34
  TRACK 64 AUDIO
    INDEX 01 71:39:06
Wertung: ()   Hinzugefügt: 29 January 2009
Bewerte als Erster diesen Mix:
Mixsuche
Suchbegriff
Genauer Wortlaut
Alle Worte (UND)
Ein Wort (ODER)
SPONSOREN