Mixkatalog
 Einloggen
Login
Passwort

Deep Dance 075 Hits: 2  

Deep Dance 075


Kurzbeschreibung:
Deep Records präsentiert Deep Dance 75, Version 2004. Eine weitere Ausgabe der Edition Reihe. Auch Egypt Reihe genannt.
 
Crew/DJ: Deep Records Reihe: DD Serie Edition
Stil: Dance Erscheinungsjahr: 2005
Anzahl Tonträger: 1 Spielzeit: 76:14
Trackliste:
    Deep Dance Take 75:
    Spieldauer 32'47
  1. Intro
  2. K-Tronic - Love Beats
  3. Klubbheads - One Two Three To The Four
  4. S.W.A.T. feat. Real - U Got To Let The Music 2004
  5. 666 - Dance Now!
  6. Mark 'Oh - I Promise My Love To You
  7. Lichtenfels - B-Boys Fly Girls
  8. Crowdshaker - Stay! (It's Partytime)
  9. Starsplash - Can You Kick It?
  10. Angel Beats meets DJ Merlin - You Make My Dreams
  11. Scarf! - Club Inferno
  12. Digital One - My Body
  13. Jana Tigrez - I Can't Believe
  14. Intensity - Overload
  15. Public Flavor - Fuck You (Right Back)
  16. Bulldozer - Dance
  17. Laura Branigan - Gloria 2004
  18. Rubia - Hablame Luna
  19. Miraluna - One Day
  20. Superstar - Roses Are Red 2004
  21. Noe - Love Is On Fire
  22. Villa & Gant pres. Marco Dejo - Secret
  23. DJ Manian - Love Song
  24. Speedway vs. LMC - In & Out
  25. Florida Inc. - Fuck It (I Don't Want You Back)
  26. Agnetha Faltskog - If I Throught You'd Ever Change
  27. Antique - Matia Mou (Where Are You)
  28. Potatoheadz - Turn It Up
  29. DJ Thoka vs. DJ Taylor - Happy Song
  30. Crystal - In The End
  31. Caater feat. Trinity - Never Ever
  32. Beach Bumpers - Altogether
  33. Royal Gigolos - California Dreamin'
  34. In-Grid - Mais La Nuit... Il Dort!
  35. Eight - Supernatural
  36. Sophie Ellis Bextor - Yes Sir, I Can Boogie
    Deep Italo:
    Spieldauer 24'47
  37. Paps 'N' Skar - La Luna
  38. Grenada - My First Love
  39. Love Touch - Angels In The Dust
  40. Gigi D'Agostino & Pandolfi - Gigi's Good Night
  41. Colonia - C'est La Vie
  42. Emi - Anima Libera
  43. Bastino - Serenade (Hold Me Now)
  44. Watt Mangione - Gira Il Mondo
  45. Tom Yonke feat. Ice Simony - I Wonder
  46. No Chains - I Could Be
  47. Yasmin - Kiss Kiss
  48. Origami - Larila Song
  49. DJ Bum Bum - Without You
  50. Kim Lian - Teenage Superstar (Hit Remix)
  51. Saverio & Lele - Nando Discoteca
  52. Don Wayne - Guide You Through The Night
  53. DJ Satomi - Castle In The Sky
  54. Brothers - 10 100 1000
  55. Gianni Togni - Luna (Remix)
    Deep Slow:
    Spieldauer 18'40
  56. Preluders - Hotter Than You Know
  57. 50 Cent vs. Jonell - Don't Stop In Da Club (Bootleg)
  58. Beenie Man feat. Ms Thing & S. - Dude
  59. Shawn Desman - Movie Star (Part 2)
  60. One-T & Cool-T - Starsky & Hutch
  61. Buddy - Wattn' Ding
  62. Anastacia - Sick & Tired
  63. Oomph feat. Lame Immortelle - Brennende Liebe
  64. Kool & The Gang feat. Jean Paul - Ladies Night
  65. Deeyah - I Saw You
  66. Speedy - Sientelo
  67. Blue - Bubblin' (Remix)
  68. Nivea feat. Bonecrusher & Pasto - ATL
  69. Kelis - Trick Me
  70. Ice MC - It's A Miracle
  71. Javine - Best Of My Love
  72. Justin vs. Kelis - Like I Love Your Milkshake (Bootleg)
Cue-Informationen:

FILE "filename.mp3" MP3
  TRACK 01 AUDIO
    INDEX 01 00:00:00
  TRACK 02 AUDIO
    INDEX 01 00:36:58
  TRACK 03 AUDIO
    INDEX 01 32:49:14
  TRACK 04 AUDIO
    INDEX 01 57:33:58
Wertung: (1)   Hinzugefügt: 13 February 2011
RSS Feed
RSS Feed
Sprache
Deutsch Englisch Französisch
Mixsuche
Suchbegriff
Genauer Wortlaut
Alle Worte (UND)
Ein Wort (ODER)
Statistik
14860 Mixe eingetragen
14547 Tracklisten
Newsletter
E-Mail
Anmelden
Abmelden
SPONSOREN