Mixkatalog
 Einloggen
Login
Passwort

Deep Dance 100 Hits: 1  

Deep Dance 100


Kurzbeschreibung:
Deep Records präsentiert den 100th Deep Magic Dance. Ein Mix der 90ziger Jahre. Der Mix entspricht dem Crashinator 90's Episode Part 2.
 
Crew/DJ: Deep Records Reihe: DD Serie Erstauflage
Stil: Dance Erscheinungsjahr: 2005
Anzahl Tonträger: 1 Spielzeit: 76:56
Trackliste:
    Deep Dance Take 100:
    Spieldauer 76'56
  1. Intro
  2. Army Of Lovers - Judgment Day
  3. 2-4 Family - Lean On Me
  4. Absolute Beginner - Liebeslied
  5. ALT & The Lost Civilization - Tequila
  6. Ace Of Base - All That She Wants
  7. Ghetto People feat. L-Viz - In The Ghetto
  8. Ginuwine - When Doves Cry
  9. 2 Young - Seasons In The Sun
  10. Diana King - Shy Guy
  11. Leila K. - Slow Motion
  12. NAS - If I Ruled The World
  13. Notorious B.I.G. - Hypnotize
  14. Peter Andre - Mysterious Girl
  15. Shanice - I Love Your Smile
  16. SWV - Right Here
  17. Down Low - Once Upon A Time
  18. Down Low - H.I.V.
  19. AK Swift - Light In Me
  20. 4 The Cause - Stand By Me
  21. Jan Hammer - Crockets Theme (Remix)
  22. Enigma - Sadeness Part I
  23. Mark Morrison - Return Of The Mack
  24. Ace Of Base - Don't Turn Around
  25. Rammstein - Engel
  26. Ace Of Base - Life Is A Flower
  27. Pappa Bear - Cherish
  28. Nana - Dreams
  29. Pappa Bear - When The Rain Begins To Fall
  30. Rappaers Against Racism - Key To Your Heart
  31. 2-4 Family - Stay
  32. Whigfield - Big Time
  33. Tasmin Archer - Sleeping Satellite
  34. Dr. Alban - Away From Home
  35. Dr. Alban - No Coke
  36. Ace Of Base - The Sign
  37. In-Mood feat. Juliette - The Last Unicorn
  38. Spektakoolär - Du Bist Abgehaun
  39. Garcia - Bamboleo
  40. RnG - Can't U C
  41. Der Wolf - Oh Shit, Frau Schmidt
  42. Die Fantastischen Vier - Die Da
  43. Dieter Krebs & Gundula - Ich Bin Der Martin Ne
  44. Centory - Girl You Know It's True
  45. K7 - Hideho
  46. Ghetto People - Those Were The Days
  47. Snow - Informer
  48. Lucilectric - Mädchen
  49. Midge Ure - Breathe
  50. DJ Bobo - There's A Party
  51. Skee-Lo - I Wish
  52. Del Tha Funkee Homosapien - Mistadabolina
  53. Fettes Brot - Jein
  54. C-Block - Time Is Tickin' Away
  55. Gabrielle - Dreams
  56. DJ Bobo - Everybody
  57. C-Block - So Strong Out
  58. C-Block - Broken Wings
  59. Enrique Iglesias - Bailamos
  60. DJ Bobo - It's My Life
  61. Eric Rapton & B.O.G.D. - Ging Gang Gooley
  62. Faray - Back To Back
  63. E-Rotic - Gimme Good Sex
  64. Fun Factory - Don't Go Away
  65. Garland Jeffreys - Hail Hail Rock 'N' Roll
  66. LL Cool J - Hot Hot Hot
  67. Jam & Spoon - Kaleidoskop Skies
  68. Lauryn Hill - Doo Wop (That Thing)
  69. Mr. President - Coco Jambo
  70. The Deliquent Habits - Tres Delinquentes
  71. L.A.P.D. - I'll Be There
  72. Pras Michel - Ghetto Superstar
  73. The Kelly Family - Roses Of Red
  74. Mr. President - Happy People
  75. Lighthouse Family - High
  76. Thomas D. - Rückenwind
  77. Backstreet Boys - Quit Playing Games With My Heart
  78. Charles & Eddie - Would I Lie To You
  79. Moby - Why Does My Heart Feel So Bad
  80. DJ Tomekk - 1, 2, 3 Rhythm Galore
  81. Yamboo - Come With Me
  82. Cyndi Lauper - Hey Now
  83. DJ Bobo - Around The World
  84. Die Fantastischen Vier - Populär
  85. Garcia - Kalimba De Lune
  86. Color Me Bad - I Wanna Sex You Up
  87. Ini Kamoze - Here Comes The Hotstepper
  88. Bürger Lars Dietrich - Sexy Eis
  89. Der Wolf - Gibt's Doch Gar Nicht
  90. Dr. Alban - Hello Afrika
  91. Beat System - What's Going On
  92. East 17 - West & Girls
  93. Luiquido - Narcotic
  94. Spike - Respect
  95. Masterboy - Land Of Dreaming
  96. Stefan Raab - Hier Kommt Die Maus
  97. E-Rotic - Help Me Dr. Dick
  98. The Beloved - Sweet Harmony
  99. Aqua - Turn Back Time
  100. Chilli feat. Carapichio - Tic Tic Tac
  101. Los Del Rio - Macarena
  102. Montell Jordan - This Is How We Do It
  103. Echt - Alles Wird Sich Ändern
  104. Erasure - Always
  105. Alina - Nur Für Dich
  106. AMG - Bitch Betta Have My Money
  107. Vengaboys - We Are Going To Ibiza
  108. Destiny's Child - Bug A Boo
  109. Chumbawamba - Tubthumping
  110. Echt - Wir Haben's Getan
  111. Savage Garden - To The Moon & Back
  112. Captain Hollywood - Love & Pain
  113. Spike - Respect
  114. Spike - Responsible
  115. Marky Mark - Feel The Vibe
  116. Princessa - Believe In You
  117. Prince Ital Joe feat. Marky Mark - Life In The Street
  118. Desree - Life
  119. Sabrina - Folge Dem Stern
  120. Black Machine - How Gee
  121. Boney M. 1999 - It's A Holiday
  122. Judith - We Gonna Stay Together
  123. Dr. Alban - Born In Africa
  124. Stefan Raab & Bürger Lars Dietrich feat. Onkel Jürgen - Ein Bett Im Kornfeld
Cue-Informationen:

FILE "filename.mp3" MP3
  TRACK 01 AUDIO
    INDEX 01 00:00:00
  TRACK 02 AUDIO
    INDEX 01 01:00:17
  TRACK 03 AUDIO
    INDEX 01 12:25:36
  TRACK 04 AUDIO
    INDEX 01 22:32:48
  TRACK 05 AUDIO
    INDEX 01 32:26:48
  TRACK 06 AUDIO
    INDEX 01 43:19:48
  TRACK 07 AUDIO
    INDEX 01 53:17:48
  TRACK 08 AUDIO
    INDEX 01 62:45:13
Wertung: ()   Hinzugefügt: 11 February 2011
Bewerte als Erster diesen Mix:
RSS Feed
RSS Feed
Sprache
Deutsch Englisch Französisch
Mixsuche
Suchbegriff
Genauer Wortlaut
Alle Worte (UND)
Ein Wort (ODER)
Statistik
15023 Mixe eingetragen
14705 Tracklisten
Newsletter
E-Mail
Anmelden
Abmelden
SPONSOREN