Mixkatalog
 Einloggen
Login
Passwort

The 021st Story Hits: 8  

The 021st Story


Kurzbeschreibung:
The Mega Monster Mix, Studio 33 The 21st Story.
 
Crew/DJ: Studio 33 Reihe: Story
Stil: Dance Erscheinungsjahr: 1998
Anzahl Tonträger: 1 Spielzeit: 73:36
Trackliste:
  1. Intro
  2. Ace Of Base - Cruel Summer
  3. Pro-Tone - Derrick '98
  4. No Mercy - Hello, How Are You
  5. Masterboy - Dancin' Forever
  6. Faithless - God Is A DJ
  7. Caro - Enter Love Zone
  8. Discomaniaxx - This Is How...
  9. Space Invaders - Watch Out
  10. Fun 2 U - Here Comes The Rain
  11. Love Inc. - Broken Bones
  12. N.Y.C.C. - Highway To Hell
  13. Superbeat - Feel The Drive
  14. Cometz - Scooby Dooby Boy
  15. Beatbox feat. Rael - Let The Music Play
  16. Brooklyn Bounce - Contact
  17. Ham & Eggs - The Great Song Of Indifference
  18. The Woolpackers - Line Dance Party
  19. Perpetual Motion - Keep On Dancing-Let's Go
  20. Enie - Baby Elephant Walk
  21. Interactive - Fanatic
  22. Niels van Gogh - Pulverturm
  23. Gorgeous - Love Sensation
  24. DJ Sakin & Friends - Protect Your Mind
  25. Dolphin's Mind - Believe In You
  26. Superstring - Liberate Yourself
  27. DJ Visage - Formula '98
  28. Franka Potente & Thomas D. - Wish (Komm Zu Mir)
  29. Resistance D. & Talla - Hypnotic
  30. DJ Energy - Set You Free
  31. Orchestral Manoeuvres In The Dark - Enola Gay '98
  32. Beam & Yanou - Paradiso
  33. Vogue - Give Me The Night
  34. Dyewitness - What Would You Like '98
  35. Just Luis - Freebaby
  36. Blümchen - Ich Bin Wieder Hier
  37. Candy J. - Bamboozled
  38. Spice Girls - Viva Forever
  39. 4 The Cause - Ain't No Sunshine
  40. Pappa Bear - Honey Love
  41. Will Smith - The Two Of Us
  42. 2 Ruff - Only You-That I Need
  43. 2-4-Family - Stay
  44. DJ Bobo - Around The World
  45. Supa T. - Be True
  46. R'N'G - I Love Your Smile
  47. Amanda Lear - Blood & Honey '98
  48. Syntastic - Daddy Lend Me Your Car
  49. Blue 4 You - Happy World
  50. Queen feat. Wyclef Jean - Another One Bites The Dust
  51. Radiorama - Aliens 2000
  52. D'Gorgio - Phunky Love
  53. Southside Rockers - Rock On
  54. Eagle Eye Cherry - Save Tonight
  55. Human Resource - Dominator '98
  56. Fresh Paint - Shalali Lala
  57. Foundation feat. Deskee - Get Up September
  58. Ray Krebbs - The Gym
  59. Stardust - Music Sounds Better With You
  60. DJ Tonka - She Knows You
  61. Mark 'Oh feat. Cecile - The Team On Tour
  62. Kosmonova feat. Tania Evans - Singin' In My Mind
  63. Sqeezer - Wake Up
  64. Fancy - Flames Of Love
Cue-Informationen:

FILE "filename.mp3" MP3
  TRACK 01 AUDIO
    INDEX 01 00:00:00
  TRACK 02 AUDIO
    INDEX 01 00:43:50
  TRACK 03 AUDIO
    INDEX 01 01:57:37
  TRACK 04 AUDIO
    INDEX 01 02:14:10
  TRACK 05 AUDIO
    INDEX 01 03:16:65
  TRACK 06 AUDIO
    INDEX 01 05:11:22
  TRACK 07 AUDIO
    INDEX 01 05:54:60
  TRACK 08 AUDIO
    INDEX 01 06:51:67
  TRACK 09 AUDIO
    INDEX 01 07:20:27
  TRACK 10 AUDIO
    INDEX 01 08:45:52
  TRACK 11 AUDIO
    INDEX 01 10:25:12
  TRACK 12 AUDIO
    INDEX 01 11:23:65
  TRACK 13 AUDIO
    INDEX 01 12:34:67
  TRACK 14 AUDIO
    INDEX 01 13:31:52
  TRACK 15 AUDIO
    INDEX 01 14:51:32
  TRACK 16 AUDIO
    INDEX 01 16:58:62
  TRACK 17 AUDIO
    INDEX 01 18:16:45
  TRACK 18 AUDIO
    INDEX 01 19:55:25
  TRACK 19 AUDIO
    INDEX 01 20:37:47
  TRACK 20 AUDIO
    INDEX 01 21:05:55
  TRACK 21 AUDIO
    INDEX 01 22:16:17
  TRACK 22 AUDIO
    INDEX 01 23:40:47
  TRACK 23 AUDIO
    INDEX 01 24:36:57
  TRACK 24 AUDIO
    INDEX 01 25:46:62
  TRACK 25 AUDIO
    INDEX 01 27:23:60
  TRACK 26 AUDIO
    INDEX 01 28:52:62
  TRACK 27 AUDIO
    INDEX 01 30:13:70
  TRACK 28 AUDIO
    INDEX 01 31:50:00
  TRACK 29 AUDIO
    INDEX 01 32:58:67
  TRACK 30 AUDIO
    INDEX 01 33:53:60
  TRACK 31 AUDIO
    INDEX 01 35:02:17
  TRACK 32 AUDIO
    INDEX 01 36:30:40
  TRACK 33 AUDIO
    INDEX 01 38:05:00
  TRACK 34 AUDIO
    INDEX 01 39:26:50
  TRACK 35 AUDIO
    INDEX 01 41:01:27
  TRACK 36 AUDIO
    INDEX 01 42:22:52
  TRACK 37 AUDIO
    INDEX 01 43:16:62
  TRACK 38 AUDIO
    INDEX 01 44:51:15
  TRACK 39 AUDIO
    INDEX 01 45:53:22
  TRACK 40 AUDIO
    INDEX 01 47:44:47
  TRACK 41 AUDIO
    INDEX 01 49:14:70
  TRACK 42 AUDIO
    INDEX 01 50:26:40
  TRACK 43 AUDIO
    INDEX 01 52:05:47
  TRACK 44 AUDIO
    INDEX 01 53:22:40
  TRACK 45 AUDIO
    INDEX 01 54:30:45
  TRACK 46 AUDIO
    INDEX 01 55:47:00
  TRACK 47 AUDIO
    INDEX 01 57:20:67
  TRACK 48 AUDIO
    INDEX 01 58:16:02
  TRACK 49 AUDIO
    INDEX 01 59:38:62
  TRACK 50 AUDIO
    INDEX 01 60:37:07
  TRACK 51 AUDIO
    INDEX 01 61:46:27
  TRACK 52 AUDIO
    INDEX 01 63:10:70
  TRACK 53 AUDIO
    INDEX 01 64:15:27
  TRACK 54 AUDIO
    INDEX 01 65:18:65
  TRACK 55 AUDIO
    INDEX 01 65:51:25
  TRACK 56 AUDIO
    INDEX 01 66:48:70
  TRACK 57 AUDIO
    INDEX 01 67:35:25
  TRACK 58 AUDIO
    INDEX 01 68:11:07
  TRACK 59 AUDIO
    INDEX 01 69:11:05
  TRACK 60 AUDIO
    INDEX 01 70:11:05
  TRACK 61 AUDIO
    INDEX 01 71:39:45
  TRACK 62 AUDIO
    INDEX 01 72:25:02
Wertung: ()   Hinzugefügt: 27 January 2009
Bewerte als Erster diesen Mix:
Mixsuche
Suchbegriff
Genauer Wortlaut
Alle Worte (UND)
Ein Wort (ODER)
SPONSOREN