Mixkatalog
 Einloggen
Login
Passwort

The 018th Story Hits: 3  

The 018th Story


Kurzbeschreibung:
Studio 33 präsentiert Wett-Mixen, The 18th Story, gemixt von Franz Breakbauer.
 
Crew/DJ: Studio 33 Reihe: Story
Stil: Dance Erscheinungsjahr: 1998
Anzahl Tonträger: 1 Spielzeit: 73:19
Trackliste:
  1. Intro
  2. Ricky Martin - La Copa De La Vida
  3. Vengaboys - Up & Down
  4. Deadly Sins - We Are Going On Down '98
  5. Hi-Town DJ's - Ding-A-Ling
  6. Groove Gangsters - Make You Yeah
  7. Debbi Clark - Virtual Lover
  8. Grandmaster D. - Rock You
  9. Dune - Keep The Secret
  10. DJ Maui - That's How We Do It
  11. Da Hool - Hypochonda
  12. DJ Don & Svenson - My Beat Shoot Back
  13. Ittybitty, Boozywoozy & Greatski - Pumped Up Funk
  14. Spacegirl - I Wanna Be A Spacegirl
  15. Y.D.Project - Wannabe Ur Lover
  16. C.M. - Sensation
  17. Ian Lex - I Wanna Be Your Man
  18. Klubbheads - Kickin' Hard
  19. R.O.O.S. - Living In A Dream
  20. Gate - Open The Gate
  21. Tank - Welcome To The Pleasuredome
  22. Hi-Town DJ's - Ding-A-Ling
  23. Vitamino feat. Da Force - What I've Got
  24. Limit feat. DJ Memet - Go!
  25. Promo - White Label
  26. Fellini - Amore
  27. Booster Inc. - People Are Still Having Sex
  28. JR's Revenge - Dallas
  29. Paffendorf - Smile
  30. Superfly - Dial 'M For Moguai
  31. Blend - Blend
  32. Disc-O-Thek - Heaven's Tears
  33. V.D. Project - Wannabe Ur Luver
  34. Cyrus & The Joker - Milky Way
  35. DJ Maui - That's How We Do It
  36. N.Y.C.C. - Can You Feel It (Rock Da House)
  37. Sara - Time Of Change
  38. Plankz - Killabeat
  39. Fiocco - Spread The Word Around
  40. Paralyzer - The Movin' Generation
  41. Kai Tracid - Dance For Eternity
  42. Vengaboys - Up & Down
  43. Phantasma - Revolution
  44. Born On Trouble - One For The Trouble '98
  45. The Bronx - Wet Like The Rain
  46. Two Phunky People - Space The Base (Sash! Remix)
  47. DJ Zuul - Feel The Music
  48. Groove Gangsters - Make You Yeah
  49. Chou Project - A Love Like This
  50. Absolom - Secret
  51. Klubbheads - Kickin' Hard
  52. Resistance D. - Impression
  53. DJ Sammy - Magic Moments
  54. Paradisio - Bandolero
  55. Mr. John - Take Me Away
  56. Savage Garden - Truly Madly Deeply
  57. Deep Down - Suffer & Die
  58. Rapublic - Serenade
  59. Troja - Tiefer
  60. Young Deenay - Wannabe Your Lover
  61. Nana - Remember The Time
  62. Superboy - Wish You Were Here
  63. In-Mood feat. Juliette - Ocean Of Light
  64. Navigators - Come Into My Life
  65. Toni Cottury - My Life
  66. Dignity - Talk To Me
  67. 4 The Cause - Stand By Me
  68. Flava - Summer In The City
  69. Ace Of Base - Life Is A Flower
  70. Dr. Alban - Enemies
  71. Sweet Connection - True
  72. Aphrodelics - Rollin' On Chrome
  73. Take 5 - I Give
  74. Markus Anthony - We Love Money
  75. 5ive - When The Lights Go Out
  76. Bootsy Collins - Do The Freak
  77. T-Street - Words
  78. Awesome - Crazy
  79. Ultimate Chaos - Casanova
  80. Heaven 17 meets Fast Eddie - Let Me Go
  81. The Tamperer feat. Maya - Feel It
  82. Funkjunkeez - Got Funk
  83. Funky 9ers - Stars On 45
  84. Whigfield - Givin' All My Love
  85. Jaxx On Five - Poppin' Da Cork
  86. Caught In The Act - Baby Come Back
  87. Nek - Laura Non C'e
  88. La Bomba feat. Los Primos - Chiquitan
  89. Jaxx On Five - Poppin' Da Cork
  90. Huff & Herb - Up On The Blue
  91. U96 - Energie
  92. Madonna - Ray Of Light
Cue-Informationen:

FILE "filename.mp3" MP3
  TRACK 01 AUDIO
    INDEX 00 00:00:00
  TRACK 02 AUDIO
    INDEX 01 00:47:36
  TRACK 03 AUDIO
    INDEX 01 01:30:09
  TRACK 04 AUDIO
    INDEX 01 02:56:54
  TRACK 05 AUDIO
    INDEX 01 04:07:14
  TRACK 06 AUDIO
    INDEX 01 05:01:67
  TRACK 07 AUDIO
    INDEX 01 05:31:57
  TRACK 08 AUDIO
    INDEX 01 06:34:35
  TRACK 09 AUDIO
    INDEX 01 07:37:52
  TRACK 10 AUDIO
    INDEX 01 08:47:49
  TRACK 11 AUDIO
    INDEX 01 09:15:45
  TRACK 12 AUDIO
    INDEX 01 10:25:26
  TRACK 13 AUDIO
    INDEX 01 11:21:27
  TRACK 14 AUDIO
    INDEX 01 12:17:48
  TRACK 15 AUDIO
    INDEX 01 12:49:39
  TRACK 16 AUDIO
    INDEX 01 13:31:19
  TRACK 17 AUDIO
    INDEX 01 15:09:06
  TRACK 18 AUDIO
    INDEX 01 15:50:66
  TRACK 19 AUDIO
    INDEX 01 17:24:58
  TRACK 20 AUDIO
    INDEX 01 18:06:37
  TRACK 21 AUDIO
    INDEX 01 19:02:06
  TRACK 22 AUDIO
    INDEX 01 19:47:16
  TRACK 23 AUDIO
    INDEX 01 21:24:31
  TRACK 24 AUDIO
    INDEX 01 23:01:38
  TRACK 25 AUDIO
    INDEX 01 24:24:53
  TRACK 26 AUDIO
    INDEX 01 25:06:23
  TRACK 27 AUDIO
    INDEX 01 25:54:62
  TRACK 28 AUDIO
    INDEX 01 27:19:56
  TRACK 29 AUDIO
    INDEX 01 28:29:00
  TRACK 30 AUDIO
    INDEX 01 29:10:40
  TRACK 31 AUDIO
    INDEX 01 29:52:06
  TRACK 32 AUDIO
    INDEX 01 31:00:72
  TRACK 33 AUDIO
    INDEX 01 32:09:47
  TRACK 34 AUDIO
    INDEX 01 33:18:11
  TRACK 35 AUDIO
    INDEX 01 34:43:70
  TRACK 36 AUDIO
    INDEX 01 35:59:03
  TRACK 37 AUDIO
    INDEX 01 37:20:37
  TRACK 38 AUDIO
    INDEX 01 39:01:17
  TRACK 39 AUDIO
    INDEX 01 40:08:20
  TRACK 40 AUDIO
    INDEX 01 41:10:54
  TRACK 41 AUDIO
    INDEX 01 42:38:38
  TRACK 42 AUDIO
    INDEX 01 43:57:72
  TRACK 43 AUDIO
    INDEX 01 45:21:33
  TRACK 44 AUDIO
    INDEX 01 46:46:66
  TRACK 45 AUDIO
    INDEX 01 48:09:64
  TRACK 46 AUDIO
    INDEX 01 49:06:65
  TRACK 47 AUDIO
    INDEX 01 49:47:46
  TRACK 48 AUDIO
    INDEX 01 50:54:46
  TRACK 49 AUDIO
    INDEX 01 51:34:24
  TRACK 50 AUDIO
    INDEX 01 52:35:65
  TRACK 51 AUDIO
    INDEX 01 53:45:68
  TRACK 52 AUDIO
    INDEX 01 54:41:26
  TRACK 53 AUDIO
    INDEX 01 55:52:71
  TRACK 54 AUDIO
    INDEX 01 56:16:39
  TRACK 55 AUDIO
    INDEX 01 56:56:13
  TRACK 56 AUDIO
    INDEX 01 57:39:19
  TRACK 57 AUDIO
    INDEX 01 58:35:19
  TRACK 58 AUDIO
    INDEX 01 58:59:37
  TRACK 59 AUDIO
    INDEX 01 60:21:57
  TRACK 60 AUDIO
    INDEX 01 61:31:74
  TRACK 61 AUDIO
    INDEX 01 61:56:54
  TRACK 62 AUDIO
    INDEX 01 63:03:35
  TRACK 63 AUDIO
    INDEX 01 64:25:37
  TRACK 64 AUDIO
    INDEX 01 65:26:68
  TRACK 65 AUDIO
    INDEX 01 66:20:19
  TRACK 66 AUDIO
    INDEX 01 67:34:51
  TRACK 67 AUDIO
    INDEX 01 68:46:12
  TRACK 68 AUDIO
    INDEX 01 69:54:29
  TRACK 69 AUDIO
    INDEX 01 71:09:69
  TRACK 70 AUDIO
    INDEX 01 72:10:00
Wertung: ()   Hinzugefügt: 26 January 2009
Bewerte als Erster diesen Mix:
Mixsuche
Suchbegriff
Genauer Wortlaut
Alle Worte (UND)
Ein Wort (ODER)
SPONSOREN