Mixkatalog
 Einloggen
Login
Passwort

MNet 2000 Part 2 Hits: 15  

MNet 2000 Part 2


Kurzbeschreibung:
Mix Network Inc. präsentiert MNet 2000 Part 2.
 
Crew/DJ: Mix Network Inc. Reihe: MNet
Stil: Dance Erscheinungsjahr: 1997
Anzahl Tonträger: 1 Spielzeit: 74:23
Trackliste:
Cue-Informationen:

FILE "filename.mp3" MP3
  TRACK 01 AUDIO
    INDEX 01 00:00:00
  TRACK 02 AUDIO
    INDEX 01 01:59:70
  TRACK 03 AUDIO
    INDEX 01 03:35:00
  TRACK 04 AUDIO
    INDEX 01 05:39:45
  TRACK 05 AUDIO
    INDEX 01 07:41:20
  TRACK 06 AUDIO
    INDEX 01 09:36:07
  TRACK 07 AUDIO
    INDEX 01 11:31:00
  TRACK 08 AUDIO
    INDEX 01 13:59:47
  TRACK 09 AUDIO
    INDEX 01 15:51:12
  TRACK 10 AUDIO
    INDEX 01 17:39:20
  TRACK 11 AUDIO
    INDEX 01 19:20:50
  TRACK 12 AUDIO
    INDEX 01 21:42:45
  TRACK 13 AUDIO
    INDEX 01 23:32:22
  TRACK 14 AUDIO
    INDEX 01 25:34:02
  TRACK 15 AUDIO
    INDEX 01 27:42:32
  TRACK 16 AUDIO
    INDEX 01 29:57:45
  TRACK 17 AUDIO
    INDEX 01 32:12:52
  TRACK 18 AUDIO
    INDEX 01 34:14:22
  TRACK 19 AUDIO
    INDEX 01 36:02:30
  TRACK 20 AUDIO
    INDEX 01 37:50:37
  TRACK 21 AUDIO
    INDEX 01 40:06:42
  TRACK 22 AUDIO
    INDEX 01 42:09:70
  TRACK 23 AUDIO
    INDEX 01 44:38:52
  TRACK 24 AUDIO
    INDEX 01 46:16:50
  TRACK 25 AUDIO
    INDEX 01 48:18:20
  TRACK 26 AUDIO
    INDEX 01 50:21:52
  TRACK 27 AUDIO
    INDEX 01 51:56:22
  TRACK 28 AUDIO
    INDEX 01 53:57:67
  TRACK 29 AUDIO
    INDEX 01 55:59:45
  TRACK 30 AUDIO
    INDEX 01 58:01:17
  TRACK 31 AUDIO
    INDEX 01 59:59:35
  TRACK 32 AUDIO
    INDEX 01 61:47:47
  TRACK 33 AUDIO
    INDEX 01 63:22:22
  TRACK 34 AUDIO
    INDEX 01 65:18:72
  TRACK 35 AUDIO
    INDEX 01 66:56:70
  TRACK 36 AUDIO
    INDEX 01 68:19:55
  TRACK 37 AUDIO
    INDEX 01 70:34:57
  TRACK 38 AUDIO
    INDEX 01 73:03:42
Wertung: (1)  
Hinzugefügt: 2 December 2010
RSS Feed
RSS Feed
Sprache
Deutsch Englisch Französisch
Mixsuche
Suchbegriff
Genauer Wortlaut
Alle Worte (UND)
Ein Wort (ODER)
Statistik
12778 Mixe eingetragen
12508 Tracklisten
Newsletter
E-Mail
Anmelden
Abmelden
SPONSOREN