Mixkatalog
 Einloggen
Login
Passwort

Time Travel 2010 Hits: 1  

Time Travel 2010


Kurzbeschreibung:
Deep Records präsentiert The Time Travel 2010, gemixt von DJ Deep. Mix erschien auch als The Yearmix Show 2010.
 
Crew/DJ: Deep Records Reihe: Deep Time Travel
Stil: Dance Erscheinungsjahr: 2010
Anzahl Tonträger: 1 Spielzeit: 78:40
Trackliste:
    Time Travel 2010:
    Spieldauer 78'41
  1. Intro
  2. Eminem feat. Rihanna - Love The Way You Lie
  3. Rihanna - Rude Boy
  4. Eminem - Not Afraid
  5. Israel Kamakawiwo'Ole - Over The Rainbow
  6. Madcon - Freaky Like Me
  7. Rihanna - Te Amo
  8. Mehrzad Marashi & Mark Medlock - Sweat (A La La La La Long)
  9. Travie MC Coy feat. Bruno Mars - Billionaire
  10. Silly - Alles Rot
  11. Scouting For Girls - This Ain't A Love Song
  12. Nelly - Just A Dream
  13. Michael Jackson & Akon - Hold My Hand
  14. Iyaz - Replay
  15. Unheilig - Geboren Um Zu Leben
  16. B.O.B. feat. Hayley Williams - Airplanes
  17. Sido feat. Adel Tawil - Der Himmel Soll Warten
  18. Aloe Blacc - I Need A Dollar
  19. Lena Meyer-Landrut - Satellite
  20. James Blunt - Stay The Night
  21. Train - Hey Soul Sister
  22. Lady Gaga - Alejandro
  23. Take That - The Flood
  24. Anna David - Bow For The Bad Girls
  25. Aura Dione - Song For Sophie
  26. B.O.B. feat. Bruno Mars - Nothin' On You
  27. Mohombi - Bumby Ride
  28. Bruno Mars - Just The Way You Are
  29. Mehrzad Marashi - Don't Believe
  30. Shakira - Loca
  31. Sabrina Washington - OMG
  32. Ke$ha - Blah Blah Blah
  33. Alex Max Band - Tonight
  34. Ke$ha - Tik Tok
  35. Usher feat. Pitbull - DJ Got Us Fallin' In Love
  36. Ke$ha - Your Love Is My Drug
  37. Taio Cruz - Dynamite
  38. Charlee - Boy Like You
  39. Stromae - Alors On Danse
  40. Hurts - Wonderful Life
  41. Alexandra Burke - All Night Long
  42. Katy Perry - Teenage Dream
  43. Sean Kingston - Eenie Meenie
  44. Ginuwine - Get Involved
  45. Taio Cruz feat. Ludacris - Break Your Heart
  46. P!nk - Raise Your Glass
  47. Lady Gaga feat. Beyoncé - Telephone
  48. Empire Of The Sun - We Are The People
  49. Cheryl Cole - Fight For This Love
  50. Marina & The Diamonds - Hollywood
  51. Mohombi feat. Akon - Dirty Situation
  52. Kelly Rowland - Commander
  53. Far East Movement - Like A G6
  54. Swedish House Mafia - One (Your Name)
  55. Medina - You & I
  56. Katy Perry feat. Snoop Dog - California Gurls
  57. Yolanda Be Cool & Dcup - We No Speak No Americano
  58. Black Eyes Peas - Rock That Body
  59. Oceana - Far Away
  60. Tim Berg - Seek Bromance
  61. Edward Maya & Vika Jigulina - Stereo Love
  62. Swedish House Mafia vs. Tinie Tempah - Miami 2 Ibiza
  63. Madcon - Glow
  64. Rihanna - Only Girl (In The World)
  65. Timbaland feat. Katy Perry - If We Ever Meet Again
  66. Adam Lambert - Whataya Want From Me
  67. PH Electro - Englishman In New York
  68. Velile & Safri Duo - Helele
  69. Shakira - Waka Waka
  70. Jason Derulo - In My Head
  71. Cee Lo Green - Fuck You
  72. Mark Medlock - Real Love
  73. The Ian Carey Project - Get Shaky
  74. David Guetta feat. Rihanna - Who's That Chick
  75. Laserkraft 3 D - Nein Mann
  76. Flo.Rida feat. David Guetta - Club Can't Handle Me
  77. Ne-Yo - Beautiful Monster
  78. Pitbull - Hotel Room Service
  79. Duck Sauce - Barbara Streisand
  80. Inna - Love
  81. Pitbull feat. T-Pain - Hey Baby
  82. David Guetta - Louder Than Words
  83. The Black Eyed Peas - The Time (Dirty Bit)
  84. Culcha Candela - Move It
  85. Kylie Minogue - All The Lovers
  86. Supafly Inc. - I Believe
  87. Bob Sinclar feat. Shaggy - I Wanna
  88. Avicii & Sebastien Drums - My Feelings For You
  89. Jessy Matador - Allez Olla Ole
  90. David Guetta - Gettin Over You
  91. Afrojack feat. Eva Simons - Take Over Control
  92. Madonna feat. Akon - Celebration
  93. Inna - Amazing
  94. Justin Bieber feat. Ludacris - Baby
  95. Inna feat. Bob Taylor - Déjà Vu
  96. David Guetta feat. Kid Cudi - Memories
  97. Benny Benassi feat. Kelis - Spaceship
  98. Picco - Venga
  99. Kat Deluna - Push Push
  100. Polarkreis 18 - Unendliche Sinfonie
  101. Jasper Forks - River Flows In You
  102. House Rockerz - Herzrasen
  103. Linkin Park - The Catalyst
  104. 3OH3 - My First Kiss
  105. Unheilig - Für Immer
  106. Darius & Finlay - Zeigt Mir 10
  107. Frauenarzt & Manny Marc - Disco Pogo
  108. Cascada - Pyromania
  109. Darius & Finlay - Rock To The Beat
  110. One Night Stand - Photographic
  111. Frauenarzt & Manny Marc - Atzin
  112. R.I.O. - Hot Girl
  113. PI - 3 Words
  114. Darius & Finlay - Hold On
  115. Jens O. - Hands Up
  116. Plan B. - She Said
  117. Italobrothers - Love Is On Fire
  118. N-Finity - Wavin Flag
  119. K'Naan - Wavin Flag
  120. Sido - 2010
Cue-Informationen:

FILE "filename.mp3" MP3
  TRACK 01 AUDIO
    INDEX 01 00:00:00
  TRACK 02 AUDIO
    INDEX 01 01:01:24
  TRACK 03 AUDIO
    INDEX 01 08:20:21
  TRACK 04 AUDIO
    INDEX 01 16:04:21
  TRACK 05 AUDIO
    INDEX 01 22:25:07
  TRACK 06 AUDIO
    INDEX 01 30:37:44
  TRACK 07 AUDIO
    INDEX 01 40:19:41
  TRACK 08 AUDIO
    INDEX 01 47:09:36
  TRACK 09 AUDIO
    INDEX 01 54:24:59
  TRACK 10 AUDIO
    INDEX 01 60:37:62
  TRACK 11 AUDIO
    INDEX 01 68:05:63
Wertung: (1)   Hinzugefügt: 27 February 2015
RSS Feed
RSS Feed
Sprache
Deutsch Englisch Französisch
Mixsuche
Suchbegriff
Genauer Wortlaut
Alle Worte (UND)
Ein Wort (ODER)
Statistik
14860 Mixe eingetragen
14547 Tracklisten
Newsletter
E-Mail
Anmelden
Abmelden
SPONSOREN