Mixkatalog
 Einloggen
Login
Passwort

Time Travel 2009 Hits: 1  

Time Travel 2009


Kurzbeschreibung:
Deep Records präsentiert The Time Travel 2009, gemixt von DJ Deep. Mix erschien auch als The Yearmix Show 2009.
 
Crew/DJ: Deep Records Reihe: Deep Time Travel
Stil: Dance Erscheinungsjahr: 2010
Anzahl Tonträger: 1 Spielzeit: 79:46
Trackliste:
    Time Travel 2009:
    Spieldauer 79'46
  1. Mohinder Suresh - Intro
  2. Beyoncé - Broken Hearted Girl
  3. The Dream - Hit It On The Road
  4. Rihanna - Russian Roulette
  5. Beyoncé - Halo
  6. Justin Bieber - One Time
  7. Green Day - 21 Guns
  8. Nickelback - I'd Come For You
  9. Eisblumen - Eisblume
  10. Kelly Clarkson - Already Gone
  11. Lovestoned - Rising Girl
  12. Nicol - If This Is Life
  13. Asher Roth - I Love College
  14. Jay-Z & Alicia Keys - Empire State Of Mind
  15. Akon - Be With You
  16. Kanye West - Heartless
  17. Marit Larsen - If A Song Could Get Me You
  18. Belly - Hot Girl
  19. Max Mutzke - Marie
  20. Cassandra Steen - Glaub Ihnen Kein Wort
  21. Jennifer Paige - Beautiful Lie
  22. Robbie Williams - Bodies
  23. New Kids On The Block - Dirty Dancing
  24. Cassandra Steen feat. Adel Taw - Stadt
  25. Kid Cudi - Make Her Say
  26. Cleo - Feelin Like This
  27. Horst Schlämmer - Isch Kandidiere
  28. Eisblumen - Leben Ist Schön
  29. Alicia Keys - Doesn't Mean Anything
  30. P!nk - Funhouse
  31. Lady Gaga - Love Game
  32. Alexander Rybak - Fairytale
  33. Arash - Always
  34. Daniel Schuhmacher - Anything But Love
  35. James Morrison & Nelly Furtado - Broken Strings
  36. Clueso - Gewinner
  37. Ashley Tisdale - Crank It Up
  38. Lady Gaga - Paparazzi
  39. Aura Dione - I Will Love You Monday (365)
  40. Flipsyde - When It Was Good
  41. Melanie Fiona - Give It To Me Right
  42. Lenka - Trouble Is A Friend
  43. Oceana - Cry Cry
  44. Timbaland - Morning After Dark
  45. Emiliana Torrini - Jungle Drum
  46. Lady Gaga - Bad Romance
  47. Lady Gaga - Pokerface
  48. JLS - Beat Again
  49. Ke$ha - Tik Tok
  50. The Gossip - Heavy Cross
  51. Pixie Lott - Mama Do
  52. Queensberry - Hello (Turn Your Radio On)
  53. Lily Allen - Not Fair
  54. Shakira - She Wolf
  55. Mark Medlock - Baby Blue
  56. Sugababes - Get Sexy
  57. Sean Kingston - Fire Burning
  58. Peter Fox - Haus Am See
  59. Mika - We Are Golden
  60. Flo Rida - Right Round
  61. Backstreet Boys - Straight Through My Heart
  62. Nelly Furtado - Manos Al Aire
  63. Enrique Iglesias & Sarah Connor - Takin Back My Love
  64. Keri Hilson - I Like
  65. Pitbull - Hotel Room Service
  66. Madonna - Celebration
  67. Sidney Samson - Riverside
  68. La Roux - Bulletproof
  69. David Guetta feat. Estelle - One Love
  70. Big Ali feat. Dollarman - Hit The Floor
  71. Alcazar - Burning
  72. David Tavare - Call Me Baby
  73. Booty Luv - Say It
  74. Cascada - Evacuate The Dancefloor
  75. Mark Medlock - Mamacita
  76. Pitbull - I Know You Want Me
  77. Crew 7 - Shawty Wanna Ride
  78. R.I.O. - Serenade
  79. Britney Spears - If U Seek Amy
  80. Klaas - How Does It Feel
  81. Rosenstolz - Blaue Flecken
  82. The Disco Boys - The Voice
  83. The Black Eyed Peas - I Gotta Feeling
  84. Kate Ryan - Babacar
  85. Marquess - Arriba
  86. Milow - Ayo Technology
  87. Inna - Hot
  88. Agnes - Release Me
  89. Scotty - The Black Pearl
  90. Kid Cudi - Day 'N' Nite
  91. David Guetta feat. Akon - Sexy Bitch
  92. Darius & Finlay - Destination
  93. David Guetta feat. Kelly Rowland - When Love Takes Over
  94. The Black Eyed Peas - Meet Me Halfway
  95. P!nk - Please Don't Leave Me
  96. Cidinho & Doca - Rap Des Armas
  97. R.I.O. - After The Love
  98. The Black Eyed Peas - Boom Boom Pow
  99. Michael Mind - Gotta Let You Go
  100. 3 OH! 3 - Don't Trust Me
  101. ATB pres. Flanders - Behind
  102. Rockstroh - Licht
  103. Frauenarzt & Manny Marc - Das Geht Ab
  104. Katy Perry - Waking Up In Vegas
  105. Jay Sean feat. Lil Wayne - Down
  106. Culcha Candela - Monsta
  107. Britney Spears - 3 (Three)
  108. Lasgo - Lost
  109. Mario Lopez - I Believe
  110. Cansis - It's Alright, It's OK
  111. The Hitmen - Here Today & Gone Tomorrow
  112. Bryce vs. Shaun Baker - Blame It On The Summer
  113. Andrew Spencer - Stop Loving You
  114. Klubbingman - Another Day, Another Night
  115. Mando Diao - Dance With Somebody
  116. The Rasmus - Livin In A World Without You
  117. PH Electro - San Francisco
  118. Culcha Candela - Schöne Neue Welt
  119. Liz Kay - You're Not Alone
  120. R. Gee & Tecay - Out Of The Sahara
  121. Scooter - Ti Sento
  122. Dennis Christopher - Set It Off
  123. Bangbros - Highflyer
  124. 2raumwohnung - Wir Werden Sehn
  125. Ich und Ich - Pflaster
  126. Kelly Clarkson - My Life Would Suck Without You
  127. De-Grees - My Life Would Suck Without You
  128. Cascada - Dangerous
  129. Ultrabeat - Use Somebody
  130. Manian - Welcome To The Club
  131. Manian - Ravers In The UK
  132. Rocco & Bass-T - Our Generation
  133. Jens O. - I Want You
  134. Italo Brothers - Stamp On The Ground
Cue-Informationen:

FILE "filename.mp3" MP3
  TRACK 01 AUDIO
    INDEX 01 00:00:00
  TRACK 02 AUDIO
    INDEX 01 01:07:20
  TRACK 03 AUDIO
    INDEX 01 06:27:22
  TRACK 04 AUDIO
    INDEX 01 12:01:07
  TRACK 05 AUDIO
    INDEX 01 16:25:28
  TRACK 06 AUDIO
    INDEX 01 25:00:54
  TRACK 07 AUDIO
    INDEX 01 33:53:28
  TRACK 08 AUDIO
    INDEX 01 40:20:10
  TRACK 09 AUDIO
    INDEX 01 46:44:01
  TRACK 10 AUDIO
    INDEX 01 53:52:32
  TRACK 11 AUDIO
    INDEX 01 58:34:63
  TRACK 12 AUDIO
    INDEX 01 63:48:24
  TRACK 13 AUDIO
    INDEX 01 71:49:39
Wertung: (1)   Hinzugefügt: 26 February 2015
RSS Feed
RSS Feed
Sprache
Deutsch Englisch Französisch
Mixsuche
Suchbegriff
Genauer Wortlaut
Alle Worte (UND)
Ein Wort (ODER)
Statistik
14860 Mixe eingetragen
14547 Tracklisten
Newsletter
E-Mail
Anmelden
Abmelden
SPONSOREN