Mixkatalog
 Einloggen
Login
Passwort

Dance Revolution Hits: 113  

Dance Revolution


Kurzbeschreibung:
Strictly Dance präsentiert Dance Revolution, No. 1 Mix.
 
Crew/DJ: Strictly Dance Reihe: Dance
Stil: Dance Erscheinungsjahr: 1998
Anzahl Tonträger: 1 Spielzeit: 78:38
Trackliste:
Cue-Informationen:

FILE "filename.mp3" MP3
  TRACK 01 AUDIO
    INDEX 01 00:00:00
  TRACK 02 AUDIO
    INDEX 01 00:14:69
  TRACK 03 AUDIO
    INDEX 01 00:34:39
  TRACK 04 AUDIO
    INDEX 01 01:02:62
  TRACK 05 AUDIO
    INDEX 01 01:23:54
  TRACK 06 AUDIO
    INDEX 01 02:36:72
  TRACK 07 AUDIO
    INDEX 01 03:18:59
  TRACK 08 AUDIO
    INDEX 01 03:41:16
  TRACK 09 AUDIO
    INDEX 01 04:04:07
  TRACK 10 AUDIO
    INDEX 01 04:21:23
  TRACK 11 AUDIO
    INDEX 01 05:01:42
  TRACK 12 AUDIO
    INDEX 01 05:29:14
  TRACK 13 AUDIO
    INDEX 01 05:42:35
  TRACK 14 AUDIO
    INDEX 01 07:33:08
  TRACK 15 AUDIO
    INDEX 01 07:48:26
  TRACK 16 AUDIO
    INDEX 01 09:12:31
  TRACK 17 AUDIO
    INDEX 01 10:25:42
  TRACK 18 AUDIO
    INDEX 01 12:17:12
  TRACK 19 AUDIO
    INDEX 01 13:16:29
  TRACK 20 AUDIO
    INDEX 01 13:30:26
  TRACK 21 AUDIO
    INDEX 01 15:23:43
  TRACK 22 AUDIO
    INDEX 01 15:47:69
  TRACK 23 AUDIO
    INDEX 01 16:57:32
  TRACK 24 AUDIO
    INDEX 01 17:14:65
  TRACK 25 AUDIO
    INDEX 01 18:35:18
  TRACK 26 AUDIO
    INDEX 01 18:47:33
  TRACK 27 AUDIO
    INDEX 01 19:58:32
  TRACK 28 AUDIO
    INDEX 01 20:26:37
  TRACK 29 AUDIO
    INDEX 01 21:11:63
  TRACK 30 AUDIO
    INDEX 01 22:18:08
  TRACK 31 AUDIO
    INDEX 01 23:41:57
  TRACK 32 AUDIO
    INDEX 01 24:02:31
  TRACK 33 AUDIO
    INDEX 01 25:26:55
  TRACK 34 AUDIO
    INDEX 01 27:05:24
  TRACK 35 AUDIO
    INDEX 01 27:24:36
  TRACK 36 AUDIO
    INDEX 01 28:09:26
  TRACK 37 AUDIO
    INDEX 01 28:36:17
  TRACK 38 AUDIO
    INDEX 01 29:38:46
  TRACK 39 AUDIO
    INDEX 01 31:08:63
  TRACK 40 AUDIO
    INDEX 01 32:34:43
  TRACK 41 AUDIO
    INDEX 01 32:40:33
  TRACK 42 AUDIO
    INDEX 01 32:55:36
  TRACK 43 AUDIO
    INDEX 01 34:05:13
  TRACK 44 AUDIO
    INDEX 01 34:54:58
  TRACK 45 AUDIO
    INDEX 01 36:44:42
  TRACK 46 AUDIO
    INDEX 01 37:03:56
  TRACK 47 AUDIO
    INDEX 01 37:17:18
  TRACK 48 AUDIO
    INDEX 01 37:45:40
  TRACK 49 AUDIO
    INDEX 01 38:29:07
  TRACK 50 AUDIO
    INDEX 01 39:54:36
  TRACK 51 AUDIO
    INDEX 01 41:59:01
  TRACK 52 AUDIO
    INDEX 01 42:46:51
  TRACK 53 AUDIO
    INDEX 01 43:30:64
  TRACK 54 AUDIO
    INDEX 01 44:13:71
  TRACK 55 AUDIO
    INDEX 01 45:37:42
  TRACK 56 AUDIO
    INDEX 01 46:33:23
  TRACK 57 AUDIO
    INDEX 01 47:15:07
  TRACK 58 AUDIO
    INDEX 01 47:42:73
  TRACK 59 AUDIO
    INDEX 01 48:44:27
  TRACK 60 AUDIO
    INDEX 01 49:29:20
  TRACK 61 AUDIO
    INDEX 01 49:57:12
  TRACK 62 AUDIO
    INDEX 01 50:52:33
  TRACK 63 AUDIO
    INDEX 01 51:17:17
  TRACK 64 AUDIO
    INDEX 01 51:34:01
  TRACK 65 AUDIO
    INDEX 01 53:41:36
  TRACK 66 AUDIO
    INDEX 01 54:13:20
  TRACK 67 AUDIO
    INDEX 01 55:07:51
  TRACK 68 AUDIO
    INDEX 01 55:38:46
  TRACK 69 AUDIO
    INDEX 01 56:13:35
  TRACK 70 AUDIO
    INDEX 01 56:55:21
  TRACK 71 AUDIO
    INDEX 01 57:09:16
  TRACK 72 AUDIO
    INDEX 01 57:44:02
  TRACK 73 AUDIO
    INDEX 01 58:16:15
  TRACK 74 AUDIO
    INDEX 01 59:14:10
  TRACK 75 AUDIO
    INDEX 01 59:33:37
  TRACK 76 AUDIO
    INDEX 01 60:08:44
  TRACK 77 AUDIO
    INDEX 01 61:45:70
  TRACK 78 AUDIO
    INDEX 01 62:27:61
  TRACK 79 AUDIO
    INDEX 01 62:55:27
  TRACK 80 AUDIO
    INDEX 01 63:09:55
  TRACK 81 AUDIO
    INDEX 01 63:32:27
  TRACK 82 AUDIO
    INDEX 01 64:01:74
  TRACK 83 AUDIO
    INDEX 01 65:19:21
  TRACK 84 AUDIO
    INDEX 01 66:20:54
  TRACK 85 AUDIO
    INDEX 01 66:36:14
  TRACK 86 AUDIO
    INDEX 01 66:50:74
  TRACK 87 AUDIO
    INDEX 01 67:11:18
  TRACK 88 AUDIO
    INDEX 01 67:53:03
  TRACK 89 AUDIO
    INDEX 01 68:46:29
  TRACK 90 AUDIO
    INDEX 01 70:10:49
  TRACK 91 AUDIO
    INDEX 01 70:55:48
  TRACK 92 AUDIO
    INDEX 01 71:12:68
  TRACK 93 AUDIO
    INDEX 01 72:48:17
  TRACK 94 AUDIO
    INDEX 01 74:07:59
  TRACK 95 AUDIO
    INDEX 01 75:48:52
  TRACK 96 AUDIO
    INDEX 01 77:09:25
  TRACK 97 AUDIO
    INDEX 01 77:38:59
  TRACK 98 AUDIO
    INDEX 01 77:54:74
  TRACK 99 AUDIO
    INDEX 01 78:14:74
Wertung: (1)  
Hinzugefügt: 23 August 2010
RSS Feed
RSS Feed
Sprache
Deutsch Englisch Französisch
Mixsuche
Suchbegriff
Genauer Wortlaut
Alle Worte (UND)
Ein Wort (ODER)
Statistik
12998 Mixe eingetragen
12706 Tracklisten
Newsletter
E-Mail
Anmelden
Abmelden
SPONSOREN