Mixkatalog
 Einloggen
Login
Passwort

Housemeister 01.2007 Hits: 1  

Housemeister 01.2007


Kurzbeschreibung:
Studio 33 präsentiert Housemeister Volume 1.2007.
 
Crew/DJ: Studio 33 Reihe: Housemeister
Stil: House Erscheinungsjahr: 2007
Anzahl Tonträger: 1 Spielzeit: 74:31
Trackliste:
Cue-Informationen:

FILE "filename.mp3" MP3
  TRACK 01 AUDIO
    INDEX 01 00:00:00
  TRACK 02 AUDIO
    INDEX 01 01:33:52
  TRACK 03 AUDIO
    INDEX 01 04:02:32
  TRACK 04 AUDIO
    INDEX 01 06:49:15
  TRACK 05 AUDIO
    INDEX 01 08:34:38
  TRACK 06 AUDIO
    INDEX 01 11:06:46
  TRACK 07 AUDIO
    INDEX 01 13:11:51
  TRACK 08 AUDIO
    INDEX 01 15:46:50
  TRACK 09 AUDIO
    INDEX 01 17:52:18
  TRACK 10 AUDIO
    INDEX 01 20:22:69
  TRACK 11 AUDIO
    INDEX 01 22:26:42
  TRACK 12 AUDIO
    INDEX 01 24:36:28
  TRACK 13 AUDIO
    INDEX 01 26:14:09
  TRACK 14 AUDIO
    INDEX 01 28:54:11
  TRACK 15 AUDIO
    INDEX 01 30:32:53
  TRACK 16 AUDIO
    INDEX 01 32:31:44
  TRACK 17 AUDIO
    INDEX 01 34:40:54
  TRACK 18 AUDIO
    INDEX 01 37:12:49
  TRACK 19 AUDIO
    INDEX 01 39:04:41
  TRACK 20 AUDIO
    INDEX 01 41:09:66
  TRACK 21 AUDIO
    INDEX 01 43:18:43
  TRACK 22 AUDIO
    INDEX 01 45:36:01
  TRACK 23 AUDIO
    INDEX 01 47:29:50
  TRACK 24 AUDIO
    INDEX 01 49:22:74
  TRACK 25 AUDIO
    INDEX 01 51:26:22
  TRACK 26 AUDIO
    INDEX 01 53:21:42
  TRACK 27 AUDIO
    INDEX 01 55:24:29
  TRACK 28 AUDIO
    INDEX 01 57:14:54
  TRACK 29 AUDIO
    INDEX 01 59:34:02
  TRACK 30 AUDIO
    INDEX 01 61:30:60
  TRACK 31 AUDIO
    INDEX 01 63:00:39
  TRACK 32 AUDIO
    INDEX 01 64:30:01
  TRACK 33 AUDIO
    INDEX 01 66:29:08
  TRACK 34 AUDIO
    INDEX 01 67:44:68
  TRACK 35 AUDIO
    INDEX 01 69:17:58
  TRACK 36 AUDIO
    INDEX 01 70:53:34
  TRACK 37 AUDIO
    INDEX 01 72:23:59
Wertung: (1)  
Hinzugefügt: 6 August 2010
RSS Feed
RSS Feed
Sprache
Deutsch Englisch Französisch
Mixsuche
Suchbegriff
Genauer Wortlaut
Alle Worte (UND)
Ein Wort (ODER)
Statistik
12998 Mixe eingetragen
12706 Tracklisten
Newsletter
E-Mail
Anmelden
Abmelden
SPONSOREN