Mixkatalog
 Einloggen
Login
Passwort

The 008th Story Hits: 2  

The 008th Story


Kurzbeschreibung:
Studio 33 präsentiert All That You Want, Studio 33 The 8th Story, gemixt von DJ33.
 
Crew/DJ: Studio 33 Reihe: Story
Stil: Dance Erscheinungsjahr: 1997
Anzahl Tonträger: 1 Spielzeit: 72:19
Trackliste:
  1. Intro
  2. Kate Project - Heart & Soul
  3. Armand van Helden - The Funk Phenomena
  4. C-Mania - Cross My Mind
  5. Soundlovers - People
  6. Mannequeen - I Feel Diva
  7. Nick Beat - Bow Chi Bow
  8. DJ Quicksilver - I Have A Dream
  9. Sequential One - My Love Is Hot
  10. Red 5 - I Love You ... Stop!
  11. Exit Way - Back To The Promised Land
  12. DJ Positive - Rock Da House
  13. Cupido - Historias De Amor
  14. J.K. - Sweet Lady Night
  15. Luna - You & I
  16. Supertrip - Dolce Vita
  17. J.A.M. In Deep - Bastard
  18. Max Deejay - Rhythm Is A Dancer
  19. DJ Schwede - Boom ... Boom
  20. M.R. - To France
  21. 2 For Good - You & Me
  22. Zhi-Vago - With Or Without You
  23. B.G. Prince Of Rap - Take Me Through The Night
  24. Charly Lownoise & Mental Theo - Party
  25. Hobo - Hoochie Coochie Man
  26. Pandora - A Little Bit
  27. Brooklyn Bounce - The Theme
  28. A-Trax - Sweet Lullaby
  29. Märy Kiani - 100%
  30. DJ Liend Ok.E.Y. - Mixing
  31. Object One - Ping Pong
  32. Welcome - Typhiko
  33. Object One - Ping Pong
  34. Masterboy - Just For You
  35. Cyberbeat - Merkaba
  36. Free - This Groove
  37. Rexanthony - Capturing Matrix
  38. Phantasia - Hold Me Now
  39. Free - This Groove
  40. DJ Paul Elstak - Unity
  41. 2 Brothers On The 4th Floor - There's A Key
  42. Remix - Not Ready
  43. No Doubt - Don't Speak
  44. Kaleef - Golden Brown
  45. Down Low - Potion
  46. Nana - Darkman
  47. LL Cool J - Ain't Nobody
  48. DJ Bobo - Respect Yourself
  49. Angel - Don't Tell Me Why
  50. Blue System - Body To Body
  51. Salt 'N' Pepa - Champagne
  52. Mola Adebisi - Shake That Body
  53. Marky Mark - Hey DJ
  54. DJ Bobo - Respect Yourself
  55. Flip Da Scrip - Everybody Funk Now
  56. Lorenza - And The Beat Goes On
  57. Toni Braxton - Unbreak My Heart
  58. Orange Juice - Never Gonna Lose
  59. D. & G. - Music
  60. DJ Malin - La Serenissima
  61. Lisa Stansfield - People Hold On '97
  62. Kaikoo - My Emotion
  63. Rob Tissera - Kick Up The Volume
  64. DJs @ Work - Ballon-El Globo
  65. DJ Cook - Play My Track
Cue-Informationen:

FILE "filename.mp3" MP3
  TRACK 01 AUDIO
    INDEX 01 00:00:00
  TRACK 02 AUDIO
    INDEX 01 01:02:20
  TRACK 03 AUDIO
    INDEX 01 02:39:30
  TRACK 04 AUDIO
    INDEX 01 04:24:57
  TRACK 05 AUDIO
    INDEX 01 06:29:40
  TRACK 06 AUDIO
    INDEX 01 07:11:15
  TRACK 07 AUDIO
    INDEX 01 10:12:10
  TRACK 08 AUDIO
    INDEX 01 11:09:07
  TRACK 09 AUDIO
    INDEX 01 13:26:55
  TRACK 10 AUDIO
    INDEX 01 15:16:30
  TRACK 11 AUDIO
    INDEX 01 16:55:45
  TRACK 12 AUDIO
    INDEX 01 19:21:57
  TRACK 13 AUDIO
    INDEX 01 21:15:72
  TRACK 14 AUDIO
    INDEX 01 21:58:62
  TRACK 15 AUDIO
    INDEX 01 24:12:72
  TRACK 16 AUDIO
    INDEX 01 25:10:05
  TRACK 17 AUDIO
    INDEX 01 27:24:72
  TRACK 18 AUDIO
    INDEX 01 28:54:20
  TRACK 19 AUDIO
    INDEX 01 31:36:02
  TRACK 20 AUDIO
    INDEX 01 32:30:62
  TRACK 21 AUDIO
    INDEX 01 34:44:55
  TRACK 22 AUDIO
    INDEX 01 36:22:30
  TRACK 23 AUDIO
    INDEX 01 37:29:15
  TRACK 24 AUDIO
    INDEX 01 39:04:32
  TRACK 25 AUDIO
    INDEX 01 39:45:65
  TRACK 26 AUDIO
    INDEX 01 40:48:30
  TRACK 27 AUDIO
    INDEX 01 42:56:70
  TRACK 28 AUDIO
    INDEX 01 44:09:42
  TRACK 29 AUDIO
    INDEX 01 45:32:25
  TRACK 30 AUDIO
    INDEX 01 46:44:30
  TRACK 31 AUDIO
    INDEX 01 48:15:32
  TRACK 32 AUDIO
    INDEX 01 49:37:10
  TRACK 33 AUDIO
    INDEX 01 50:44:30
  TRACK 34 AUDIO
    INDEX 01 51:22:32
  TRACK 35 AUDIO
    INDEX 01 53:06:65
  TRACK 36 AUDIO
    INDEX 01 56:44:70
  TRACK 37 AUDIO
    INDEX 01 58:58:10
  TRACK 38 AUDIO
    INDEX 01 60:46:65
  TRACK 39 AUDIO
    INDEX 01 62:58:45
  TRACK 40 AUDIO
    INDEX 01 64:15:57
  TRACK 41 AUDIO
    INDEX 01 65:43:70
  TRACK 42 AUDIO
    INDEX 01 66:56:22
  TRACK 43 AUDIO
    INDEX 01 68:25:20
  TRACK 44 AUDIO
    INDEX 01 69:36:32
  TRACK 45 AUDIO
    INDEX 01 70:40:17
  TRACK 46 AUDIO
    INDEX 01 71:08:45
Wertung: ()   Hinzugefügt: 21 January 2009
Bewerte als Erster diesen Mix:
Mixsuche
Suchbegriff
Genauer Wortlaut
Alle Worte (UND)
Ein Wort (ODER)
SPONSOREN