Mixkatalog
 Einloggen
Login
Passwort

Number One 15 Hits: 4  

Number One 15


Kurzbeschreibung:
DJ AM präsentiert No. One Volume 15 - Partymix.
 
Crew/DJ: DJ AM Reihe: Number One
Stil: Party Erscheinungsjahr: 2006
Anzahl Tonträger: 1 Spielzeit: 71:29
Trackliste:
    The Party Part One:
    Spieldauer 30'07
  1. Intro By Moneytrain
  2. Andreas Martin - Nur Bei Dir
  3. Delegation - Where Is The Love
  4. Ottawan - D.I.S.C.O.
  5. Duran Duran - Wild Boys
  6. Bee Gees - Tragedy
  7. Ingrid Peters - Afrika
  8. Falco - Der Kommisar
  9. Eruption - One Way Ticket
  10. The Supremes - Stop In The Name Of Love
  11. Huey Lewis & The News - The Power Of Love
  12. La Bionda - One For You One For Me
  13. Black Lace - Agadoo
  14. B3 - Nightfever
  15. Beagle Music Ltd. - Daydream
  16. 883 - Sei Un Mito
  17. Blue System - Déjà Vu
  18. Bus Stop feat. Carl Douglas - Kung Fu Fighting
  19. C.C. Catch feat. Krayzee - Soul Survivor ′99
  20. Andreas Dorau - Girls In Love
  21. Chyp Notic - Nothing Compares 2 U
  22. Henry & The Fun Company - Lady In Black
  23. Hermes House Band - Life Is Life
  24. Fancy - Lady Of Ice ′98
  25. F.R. Davids - Words
  26. Modern Talking - Cheri Cheri Lady
  27. Modern Talking - Brother Louie ′98
  28. Boney M. - Rivers Of Babylon
  29. Bosson - One In A Million
  30. Fancy - Slice Me Nice ′98
  31. Zollfreie Ware
    The Party Part Two:
    Spieldauer 26'46
  32. Bellamy Brothers - Let Your Love Flow
  33. Gigi D′Agostino - The Riddle
  34. Celine Dion - My Heart Will Go On (Dance Version)
  35. Haddaway - Life
  36. Rocky M - Fly With Me To Wonderland
  37. Heaven - Drive
  38. Lazette - Last Christmas
  39. Lorindo - Right Here Waiting
  40. Nick Kamen - I Promised Myself
  41. Houseboyz - Father & Son
  42. Passion Fruit - The Rigga Ding Dong Song
  43. X-Perience - I Dont Care
  44. Anderson Farah - Viva El Tango
  45. Discorama - Born To Be Alive
  46. Loona - Latino Lover
  47. Haddaway - Come Back
  48. Ben McCosker - IoIo
  49. Blue Ice - Keep Me Hanging On
  50. Aqua - Barbie Girl
  51. Ben McCosker - Nothing Gonna Change My Love For You
  52. Europe - The Final Countdown 2000
  53. Fancy - Pretty Woman 2001
  54. Joy - Touch By Touch 2003
  55. Backstreet Boys - Shape Of My Heart
  56. Jam Tronik - Do Anything For Love
    The Party Part Three:
    Spieldauer 14'37
  57. E.A.V. - Küss Die Hand Schöne Frau
  58. 4 Love - I Just Called
  59. Wolfgang Petry - Ganz Oder Gar Nicht
  60. Wolfgang Petry - Der Himmel Brennt
  61. DJ Tequilla & DJ Grappa - Mamma Maria
  62. Whigfield - Be My Baby
  63. Blue System - Laila
  64. Erasure - Oh L′Amour
  65. Chipz - Chipz In Black
  66. Nico Gemba - I Just Can′t Get Enough
  67. Gottlieb Wendehals - Polonäse Blankenese
  68. Dschinghis Khan - Dschinghis Khan
  69. Harajuku - Can You Feel The Love Tonight
  70. Undercover - Every Breath You Take
  71. Safri Duo - Played A Live
  72. Vengaboys - Kiss
Cue-Informationen:

FILE "filename.mp3" MP3
  TRACK 01 AUDIO
    INDEX 01 00:00:00
  TRACK 02 AUDIO
    INDEX 01 02:25:44
  TRACK 03 AUDIO
    INDEX 01 30:15:40
  TRACK 04 AUDIO
    INDEX 01 56:17:30
Wertung: (1)   Hinzugefügt: 4 August 2010
RSS Feed
RSS Feed
Sprache
Deutsch Englisch Französisch
Mixsuche
Suchbegriff
Genauer Wortlaut
Alle Worte (UND)
Ein Wort (ODER)
Statistik
14943 Mixe eingetragen
14627 Tracklisten
Newsletter
E-Mail
Anmelden
Abmelden
SPONSOREN