Mixkatalog
 Einloggen
Login
Passwort

Number One 09 Hits: 1  

Number One 09


Kurzbeschreibung:
DJ AM präsentiert No. One Volume 9 - The 90s Special Part 2. Only The Best Dance-Mix.
 
Crew/DJ: DJ AM Reihe: Number One
Stil: Dance Erscheinungsjahr: 2005
Anzahl Tonträger: 1 Spielzeit: 57:15
Trackliste:
    DJ AM Number One Vol. 9:
    Spieldauer 57'15
  1. Intro By Moneytrain
  2. Centory - The Spirit
  3. Co Ro feat. Taleesa - There′s Something Going On
  4. Rednex - Cotton Eye Joe
  5. Haddaway - Rock My Heart
  6. DJ Bobo - Move Your Feet
  7. Culture Beat - Take Me Away
  8. Masterboy - Mister Feeling
  9. Time To Time - Der Tanzpirator
  10. Lyte Funkie Ones - Step By Step
  11. Prince Ital Joe feat. Marky Mark - Babylon
  12. Pearl - Kissing Like A Virgin
  13. Technotronic - Hey Yo
  14. DJ Bobo - Pray
  15. X-Perience - A Neverending Dream
  16. Culture Beat - Mr. Vain
  17. Chak - Summer Party
  18. Swing feat. Dr. Alban - Sweet Dream
  19. Splash - One More Dream
  20. DJ Bobo - Love Is All Around
  21. Three-O-Matic - Success
  22. Scooter - I′m Raving
  23. 2 Unlimited - Here I Go
  24. Magic Affair - World Of Freedom
  25. Mark ′Oh - Fade To Grey
  26. Musicoverload
  27. E-Rotic - Max Don′t Have Sex With Your Ex
  28. Herbie - Right Type Of Mood
  29. Cappella - Tell Me The Way
  30. Pearl - Summer Holiday
  31. Pharao - There Is A Star
  32. Souladelic - My System
  33. Activate - I Say What I Want
  34. Mr. President - I Give You My Heart
  35. Fun Factory - Pain
  36. TNN - Ayayay Cielito
  37. Imperio - Quo Vadis
  38. Intermission - Give Peace A Chance
  39. Cymurai - Magic Touch
  40. Captain Hollywood Project - The Way Of Love Is
  41. Captain Jack - Little Boy
  42. The Montini Experience - Rock Your Body
  43. Slam - Back To The Music
  44. Trenner - Shrek 2
  45. Interactive - Forever Young
  46. The Free - Dance The Night Away
  47. Star Wash - Disco Fans
  48. Onda - Storia D′Amore
  49. Pharao - World Of Magic
  50. Three-O-Matic - Hand In Hand
  51. Interactive - Tell Me When
  52. Odyssey - Everybody Move
  53. Twenty 4 Seven - We Are The World
  54. Wave Kid - Baby I Need Your Lovin
  55. Das Modul - Robby Roboter
  56. Intermission - All Together Now
  57. U96 - Love Religion
  58. Joachim Witt - Goldener Raver
  59. Mark ′Oh - Tears Don′t Lie
  60. Marusha - Raveland
  61. Dune - Are You Ready To Fly
  62. Paul Kuhn + Die Raver - Es Gibt Kein Bier Auf Hawai
  63. Charly Lownoise & Mental Theo - Party
  64. Paul Kuhn + Die Raver - Es Gibt Kein Bier Auf Hawai
  65. General Bass - I See You
  66. Blümchen - Du und Ich
Cue-Informationen:

FILE "filename.mp3" MP3
  TRACK 01 AUDIO
    INDEX 01 00:00:00
  TRACK 02 AUDIO
    INDEX 01 02:33:55
  TRACK 03 AUDIO
    INDEX 01 25:23:36
  TRACK 04 AUDIO
    INDEX 01 37:46:60
Wertung: (1)   Hinzugefügt: 4 August 2010
RSS Feed
RSS Feed
Sprache
Deutsch Englisch Französisch
Mixsuche
Suchbegriff
Genauer Wortlaut
Alle Worte (UND)
Ein Wort (ODER)
Statistik
14860 Mixe eingetragen
14547 Tracklisten
Newsletter
E-Mail
Anmelden
Abmelden
SPONSOREN