Mixkatalog
 Einloggen
Login
Passwort

The 007th Story Hits: 4  

The 007th Story


Kurzbeschreibung:
Studio 33 präsentiert Merry Mix-Mas, The 7th Story.
 
Crew/DJ: Studio 33 Reihe: Story
Stil: Dance Erscheinungsjahr: 1996
Anzahl Tonträger: 1 Spielzeit: 73:24
Trackliste:
  1. Mix-Mas Intro
    Dancefloor:
  2. Dragana - Up & Down
  3. J.A.M. feat. Natasha Wright - The Way To Your Heart
  4. Arena - Brasilian Night
  5. Alexia - Number One
  6. Westbam - Born To Bang
  7. Imperio - Return To Paradise
  8. Daisy Dee - An Angel
  9. Mr. John - It's Not Too Late
  10. Intermission - Real Love
    Rave-Ballads & Ballads:
  11. Dune - Who Wants To Live Forever
  12. Scooter - Break It Up
  13. Mark 'Oh - The Right Way
  14. Tic Tac Toe - Verpiss Dich
    Funk & Soul & Reggae:
  15. NAS - Affirmative Action
  16. Blackstreet - No Diggity
  17. MC Lyte - Cold Rock A Party
  18. Mr. President - Show Me The Way
  19. Heath Hunter - Master & Servant
  20. Mr. President - X-Mas Jambo
  21. Backstreet Boys - Quit Playing Games
  22. N-Sync - I Want You Back
  23. Party Jingle
    Dancefloor:
  24. Robert Miles - One & One
  25. The Catch -25 Years '96
  26. Captain Jack - Another One Bites The Dust
  27. No Mercy - Please Don't Go
  28. Amber - This Is Your Night
  29. Whigfield - Gimme, Gimme
  30. Gina G. - I Belong To You
  31. Alexia - Number One
    Vocal House:
  32. Livin' Joy - Follow The Rules
  33. Cymurai - Let Go
  34. Central Bass - Waiting For The Summer
    Dream House:
  35. Groove Solution - Sweet Memories
  36. Jeremy Healey - Stamp
  37. Zoe S. - Keep On Jumping
    House:
  38. Lori Glori - Come Set Me Free
  39. Three 'N' One - Reflect
  40. DJ Supreme - Tha Wildstyle
  41. Future Breeze - Why Don't You Dance With Me?
  42. DJ Quicksilver - Bellissima
  43. Magic Affair - Bohemian Rhapsody
Cue-Informationen:

FILE "filename.mp3" MP3
  TRACK 01 AUDIO
    INDEX 01 00:00:00
  TRACK 02 AUDIO
    INDEX 01 00:38:45
  TRACK 03 AUDIO
    INDEX 01 02:57:55
  TRACK 04 AUDIO
    INDEX 01 05:39:47
  TRACK 05 AUDIO
    INDEX 01 07:18:40
  TRACK 06 AUDIO
    INDEX 01 10:02:00
  TRACK 07 AUDIO
    INDEX 01 11:11:10
  TRACK 08 AUDIO
    INDEX 01 13:23:40
  TRACK 09 AUDIO
    INDEX 01 15:52:10
  TRACK 10 AUDIO
    INDEX 01 17:35:20
  TRACK 11 AUDIO
    INDEX 01 19:35:10
  TRACK 12 AUDIO
    INDEX 01 21:29:67
  TRACK 13 AUDIO
    INDEX 01 23:50:05
  TRACK 14 AUDIO
    INDEX 01 25:23:42
  TRACK 15 AUDIO
    INDEX 01 27:30:55
  TRACK 16 AUDIO
    INDEX 01 29:07:70
  TRACK 17 AUDIO
    INDEX 01 30:54:10
  TRACK 18 AUDIO
    INDEX 01 32:18:17
  TRACK 19 AUDIO
    INDEX 01 34:36:12
  TRACK 20 AUDIO
    INDEX 01 35:34:12
  TRACK 21 AUDIO
    INDEX 01 36:52:10
  TRACK 22 AUDIO
    INDEX 01 39:04:10
  TRACK 23 AUDIO
    INDEX 01 39:41:50
  TRACK 24 AUDIO
    INDEX 01 42:31:45
  TRACK 25 AUDIO
    INDEX 01 44:19:35
  TRACK 26 AUDIO
    INDEX 01 45:20:37
  TRACK 27 AUDIO
    INDEX 01 47:58:35
  TRACK 28 AUDIO
    INDEX 01 50:43:35
  TRACK 29 AUDIO
    INDEX 01 52:41:55
  TRACK 30 AUDIO
    INDEX 01 54:04:65
  TRACK 31 AUDIO
    INDEX 01 55:43:60
  TRACK 32 AUDIO
    INDEX 01 58:29:30
  TRACK 33 AUDIO
    INDEX 01 60:10:42
  TRACK 34 AUDIO
    INDEX 01 60:59:30
  TRACK 35 AUDIO
    INDEX 01 63:29:20
  TRACK 36 AUDIO
    INDEX 01 65:44:65
  TRACK 37 AUDIO
    INDEX 01 66:55:72
  TRACK 38 AUDIO
    INDEX 01 68:51:02
  TRACK 39 AUDIO
    INDEX 01 70:31:72
  TRACK 40 AUDIO
    INDEX 01 71:42:17
Wertung: ()   Hinzugefügt: 21 January 2009
Bewerte als Erster diesen Mix:
Mixsuche
Suchbegriff
Genauer Wortlaut
Alle Worte (UND)
Ein Wort (ODER)
SPONSOREN