Mixkatalog
 Einloggen
Login
Passwort

The 006th Story Hits: 3  

The 006th Story


Kurzbeschreibung:
Studio 33 präsentiert A Journey Into Sound, The 6th Story.
 
Crew/DJ: Studio 33 Reihe: Story
Stil: Dance Erscheinungsjahr: 1996
Anzahl Tonträger: 1 Spielzeit: 73:11
Trackliste:
    Dance-Journey:
  1. Masterboy - Show Me Colours
  2. Worlds Apart - Je Te Done
  3. Culture Beat - We Walk The Same Line
  4. Nomansland - Seven Seconds
  5. Free 2 Dance - Piece Of Heaven
  6. DJ Bobo - Pray
  7. D.C. Project - Mary's Prayer
  8. Sqeezer - Sweet Kisses
  9. U96 - Venus In Chains
  10. DJ Pierro - Another World
  11. M.A.N. - Stay
  12. Soarky - Follow Me
  13. Captain Jack - Little Boy
    Groove-Journey:
  14. Down Low - Murder
  15. Ghetto People - In The Ghetto
  16. Hip Hop Alliance - Nothing Like Viva
  17. Aleksey - Come Into My Life
  18. Warren G. - What's Love Got To Do
  19. NAS - If I Ruled The World
  20. 2 Brothers On The 4th Floor - Mirror Of Love
  21. C-Block - So Strong Out
  22. Skee Lo - Holdin' On
  23. Pete Anare - Flava
  24. Sin 8 - Tuff Act To Follow
  25. Captain Hollywood - The Afterparty
    House-Journey:
  26. Danny Lee - (Here Comes The) Music
  27. Stretch & Vem - I'm Alive
  28. With It Guys - Sweet Love
  29. Marisa Turner - Deeper Is The Night
  30. Lady Gee - The Game Is Over
  31. Pearl - Kissing Like A Virgin
  32. Technotronic - Pump Up The Jam '96
  33. Soundlovers - Runaway
  34. Galeria - The Geal (We Gotta Party)
  35. Klubbheads - The Magner
  36. Disconation - Kick Da Disconation
  37. G-Spline - I'm Gonna Party
  38. Faithless - Salva Mea
Cue-Informationen:

FILE "filename.mp3" MP3
  TRACK 01 AUDIO
    INDEX 01 00:00:00
  TRACK 02 AUDIO
    INDEX 01 03:28:25
  TRACK 03 AUDIO
    INDEX 01 05:30:24
  TRACK 04 AUDIO
    INDEX 01 08:03:16
  TRACK 05 AUDIO
    INDEX 01 10:44:12
  TRACK 06 AUDIO
    INDEX 01 12:46:56
  TRACK 07 AUDIO
    INDEX 01 14:34:01
  TRACK 08 AUDIO
    INDEX 01 16:26:74
  TRACK 09 AUDIO
    INDEX 01 18:25:02
  TRACK 10 AUDIO
    INDEX 01 19:50:00
  TRACK 11 AUDIO
    INDEX 01 22:14:00
  TRACK 12 AUDIO
    INDEX 01 23:57:01
  TRACK 13 AUDIO
    INDEX 01 25:25:40
  TRACK 14 AUDIO
    INDEX 01 27:36:74
  TRACK 15 AUDIO
    INDEX 01 29:42:31
  TRACK 16 AUDIO
    INDEX 01 31:41:18
  TRACK 17 AUDIO
    INDEX 01 33:54:00
  TRACK 18 AUDIO
    INDEX 01 35:28:65
  TRACK 19 AUDIO
    INDEX 01 38:07:15
  TRACK 20 AUDIO
    INDEX 01 40:16:46
  TRACK 21 AUDIO
    INDEX 01 41:57:00
  TRACK 22 AUDIO
    INDEX 01 45:00:32
  TRACK 23 AUDIO
    INDEX 01 47:12:00
  TRACK 24 AUDIO
    INDEX 01 49:21:58
  TRACK 25 AUDIO
    INDEX 01 50:51:00
  TRACK 26 AUDIO
    INDEX 01 52:04:17
  TRACK 27 AUDIO
    INDEX 01 52:52:15
  TRACK 28 AUDIO
    INDEX 01 54:34:37
  TRACK 29 AUDIO
    INDEX 01 56:31:25
  TRACK 30 AUDIO
    INDEX 01 59:04:02
  TRACK 31 AUDIO
    INDEX 01 61:13:65
  TRACK 32 AUDIO
    INDEX 01 62:11:69
  TRACK 33 AUDIO
    INDEX 01 63:52:47
  TRACK 34 AUDIO
    INDEX 01 64:36:15
  TRACK 35 AUDIO
    INDEX 01 67:01:19
  TRACK 36 AUDIO
    INDEX 01 69:25:43
  TRACK 37 AUDIO
    INDEX 01 70:08:57
  TRACK 38 AUDIO
    INDEX 01 72:04:15
Wertung: ()   Hinzugefügt: 21 January 2009
Bewerte als Erster diesen Mix:
Mixsuche
Suchbegriff
Genauer Wortlaut
Alle Worte (UND)
Ein Wort (ODER)
SPONSOREN