Mixkatalog
 Einloggen
Login
Passwort

The 004th Story Hits: 3  

The 004th Story


Kurzbeschreibung:
Studio 33 präsentiert There Can Be Only One, The Fourth Story!
 
Crew/DJ: Studio 33 Reihe: Story
Stil: Dance Erscheinungsjahr: 1996
Anzahl Tonträger: 1 Spielzeit: 75:50
Trackliste:
    Dancethema:
  1. Ice MC - Give Me The Light
  2. Gina - Just A Little Bit
  3. Whigfield - I Want Love
  4. Locura - El Ritmo Da Fiesta
  5. D.C. Mark - Baby Love
  6. Me & My - Lion Eddie
  7. Garden Eden - Lemon Tree
  8. Diana's - You Are My Angel
  9. Sqeezer - Blue Jeans
  10. U96 - Heaven
  11. Imperio - Cyberdream
    Housethema:
  12. Intro
  13. Streetnoise - Horse With No Name
  14. Pet Shop Boys - Before
  15. Carol Bailey - I Can't Make U Love Me
  16. C-Block - Shake Dat Azz
  17. America - I Love America
  18. Dee - Feeling Hm-Pa-Paa-Paaa
  19. Adeva - I Thank You
  20. Queen - You Don't Fool Me (Remix)
  21. Con Colour - House T Up
  22. S-Express - The Return Trip
  23. D-Generator - Electronic Samba
    Groovethema:
  24. Michael Jackson - They Don't Care About Us
  25. MC Lyte - Keep On, Keepin' On
  26. 2 Pac - California Love
  27. Montell Jordan - Payback
  28. Deborah Cox - Who Do U Love
  29. Mark Morrison - Return Of The Mack
  30. Fun Factory - Don't Walk Away
  31. Mr. President - Coco Jambo
  32. George Michael - Fast Love
  33. Scoop - Ladies Night
  34. Coolio - 1, 2, 3, 4 (Sumpin' New)
Cue-Informationen:

FILE "filename.mp3" MP3
  TRACK 01 AUDIO
    INDEX 01 00:00:00
  TRACK 02 AUDIO
    INDEX 01 02:44:44
  TRACK 03 AUDIO
    INDEX 01 05:27:34
  TRACK 04 AUDIO
    INDEX 01 08:43:16
  TRACK 05 AUDIO
    INDEX 01 10:20:50
  TRACK 06 AUDIO
    INDEX 01 13:08:00
  TRACK 07 AUDIO
    INDEX 01 15:37:43
  TRACK 08 AUDIO
    INDEX 01 17:33:67
  TRACK 09 AUDIO
    INDEX 01 20:08:03
  TRACK 10 AUDIO
    INDEX 01 22:44:58
  TRACK 11 AUDIO
    INDEX 01 25:05:31
  TRACK 12 AUDIO
    INDEX 01 27:30:02
  TRACK 13 AUDIO
    INDEX 01 28:18:42
  TRACK 14 AUDIO
    INDEX 01 29:56:52
  TRACK 15 AUDIO
    INDEX 01 33:12:49
  TRACK 16 AUDIO
    INDEX 01 35:56:27
  TRACK 17 AUDIO
    INDEX 01 37:53:35
  TRACK 18 AUDIO
    INDEX 01 40:35:04
  TRACK 19 AUDIO
    INDEX 01 42:47:17
  TRACK 20 AUDIO
    INDEX 01 45:12:74
  TRACK 21 AUDIO
    INDEX 01 47:52:50
  TRACK 22 AUDIO
    INDEX 01 49:47:08
  TRACK 23 AUDIO
    INDEX 01 51:40:55
  TRACK 24 AUDIO
    INDEX 01 53:47:08
  TRACK 25 AUDIO
    INDEX 01 55:55:27
  TRACK 26 AUDIO
    INDEX 01 57:13:58
  TRACK 27 AUDIO
    INDEX 01 59:30:37
  TRACK 28 AUDIO
    INDEX 01 61:14:67
  TRACK 29 AUDIO
    INDEX 01 63:08:17
  TRACK 30 AUDIO
    INDEX 01 66:06:59
  TRACK 31 AUDIO
    INDEX 01 68:25:25
  TRACK 32 AUDIO
    INDEX 01 70:28:02
  TRACK 33 AUDIO
    INDEX 01 72:35:41
  TRACK 34 AUDIO
    INDEX 01 74:31:31
Wertung: ()   Hinzugefügt: 21 January 2009
Bewerte als Erster diesen Mix:
Mixsuche
Suchbegriff
Genauer Wortlaut
Alle Worte (UND)
Ein Wort (ODER)
SPONSOREN