Mixkatalog
 Einloggen
Login
Passwort

Kamannmix 39 Hits: 66  

Kamannmix 39


Kurzbeschreibung:
Theo Kamann präsentiert Kamannmix Volume 39. Here The Best Side Of Music Nonstop Mixing.
 
Crew/DJ: Theo Kamann Reihe: Kamannmix
Stil: Dance Erscheinungsjahr: 2012
Anzahl Tonträger: 1 Spielzeit: 77:02
Trackliste:
Cue-Informationen:

FILE "filename.mp3" MP3
  TRACK 01 AUDIO
    INDEX 01 00:00:00
  TRACK 02 AUDIO
    INDEX 01 01:09:54
  TRACK 03 AUDIO
    INDEX 01 01:55:25
  TRACK 04 AUDIO
    INDEX 01 03:26:70
  TRACK 05 AUDIO
    INDEX 01 04:12:00
  TRACK 06 AUDIO
    INDEX 01 04:57:50
  TRACK 07 AUDIO
    INDEX 01 05:56:40
  TRACK 08 AUDIO
    INDEX 01 07:12:60
  TRACK 09 AUDIO
    INDEX 01 08:42:45
  TRACK 10 AUDIO
    INDEX 01 09:56:70
  TRACK 11 AUDIO
    INDEX 01 10:42:68
  TRACK 12 AUDIO
    INDEX 01 11:57:70
  TRACK 13 AUDIO
    INDEX 01 12:42:68
  TRACK 14 AUDIO
    INDEX 01 13:20:20
  TRACK 15 AUDIO
    INDEX 01 14:36:40
  TRACK 16 AUDIO
    INDEX 01 15:22:10
  TRACK 17 AUDIO
    INDEX 01 15:52:00
  TRACK 18 AUDIO
    INDEX 01 16:37:30
  TRACK 19 AUDIO
    INDEX 01 18:06:00
  TRACK 20 AUDIO
    INDEX 01 18:36:30
  TRACK 21 AUDIO
    INDEX 01 19:51:60
  TRACK 22 AUDIO
    INDEX 01 21:22:08
  TRACK 23 AUDIO
    INDEX 01 22:07:10
  TRACK 24 AUDIO
    INDEX 01 22:52:05
  TRACK 25 AUDIO
    INDEX 01 24:36:40
  TRACK 26 AUDIO
    INDEX 01 25:09:20
  TRACK 27 AUDIO
    INDEX 01 25:55:00
  TRACK 28 AUDIO
    INDEX 01 27:09:30
  TRACK 29 AUDIO
    INDEX 01 27:40:60
  TRACK 30 AUDIO
    INDEX 01 28:40:70
  TRACK 31 AUDIO
    INDEX 01 30:25:70
  TRACK 32 AUDIO
    INDEX 01 31:55:60
  TRACK 33 AUDIO
    INDEX 01 33:10:70
  TRACK 34 AUDIO
    INDEX 01 33:55:48
  TRACK 35 AUDIO
    INDEX 01 35:01:70
  TRACK 36 AUDIO
    INDEX 01 35:46:20
  TRACK 37 AUDIO
    INDEX 01 37:14:20
  TRACK 38 AUDIO
    INDEX 01 38:14:00
  TRACK 39 AUDIO
    INDEX 01 39:00:07
  TRACK 40 AUDIO
    INDEX 01 40:47:70
  TRACK 41 AUDIO
    INDEX 01 41:47:00
  TRACK 42 AUDIO
    INDEX 01 42:47:10
  TRACK 43 AUDIO
    INDEX 01 43:45:70
  TRACK 44 AUDIO
    INDEX 01 45:14:70
  TRACK 45 AUDIO
    INDEX 01 46:41:20
  TRACK 46 AUDIO
    INDEX 01 48:26:00
  TRACK 47 AUDIO
    INDEX 01 50:36:00
  TRACK 48 AUDIO
    INDEX 01 51:33:74
  TRACK 49 AUDIO
    INDEX 01 53:02:70
  TRACK 50 AUDIO
    INDEX 01 54:07:20
  TRACK 51 AUDIO
    INDEX 01 55:35:10
  TRACK 52 AUDIO
    INDEX 01 56:28:70
  TRACK 53 AUDIO
    INDEX 01 57:39:00
  TRACK 54 AUDIO
    INDEX 01 58:32:30
  TRACK 55 AUDIO
    INDEX 01 59:39:20
  TRACK 56 AUDIO
    INDEX 01 60:57:60
  TRACK 57 AUDIO
    INDEX 01 62:31:40
  TRACK 58 AUDIO
    INDEX 01 63:37:64
  TRACK 59 AUDIO
    INDEX 01 64:41:50
  TRACK 60 AUDIO
    INDEX 01 66:01:55
  TRACK 61 AUDIO
    INDEX 01 67:14:65
  TRACK 62 AUDIO
    INDEX 01 68:18:70
  TRACK 63 AUDIO
    INDEX 01 68:58:70
  TRACK 64 AUDIO
    INDEX 01 70:19:70
  TRACK 65 AUDIO
    INDEX 01 71:30:00
  TRACK 66 AUDIO
    INDEX 01 72:18:30
  TRACK 67 AUDIO
    INDEX 01 73:15:20
  TRACK 68 AUDIO
    INDEX 01 74:09:60
  TRACK 69 AUDIO
    INDEX 01 76:21:00
Wertung: (1)  
Hinzugefügt: 6 May 2012
RSS Feed
RSS Feed
Sprache
Deutsch Englisch Französisch
Mixsuche
Suchbegriff
Genauer Wortlaut
Alle Worte (UND)
Ein Wort (ODER)
Statistik
12788 Mixe eingetragen
12531 Tracklisten
Newsletter
E-Mail
Anmelden
Abmelden
SPONSOREN