Mixkatalog
 Einloggen
Login
Passwort

Deep Dance 035 Hits: 94  

Deep Dance 035


Kurzbeschreibung:
Deep präsentiert Deep Dance Volume 35. Gemixt von DJ Deep. Mix erschien in der Pappbox. Das Intro ist die Werbemelodie von Haribo.
 
Crew/DJ: Deep Reihe: DD Serie by Deep
Stil: Dance Erscheinungsjahr: 1995
Anzahl Tonträger: 1 Spielzeit: 73:27
Trackliste:
Cue-Informationen:

FILE "filename.mp3" MP3
  TRACK 01 AUDIO
    INDEX 01 00:00:00
  TRACK 02 AUDIO
    INDEX 01 00:42:52
  TRACK 03 AUDIO
    INDEX 01 35:48:47
  TRACK 04 AUDIO
    INDEX 01 66:12:12
Wertung: ()  
Hinzugefügt: 24 December 2009
Bewerte als Erster diesen Mix:
RSS Feed
RSS Feed
Sprache
Deutsch Englisch Französisch
Mixsuche
Suchbegriff
Genauer Wortlaut
Alle Worte (UND)
Ein Wort (ODER)
Statistik
13748 Mixe eingetragen
13445 Tracklisten
Newsletter
E-Mail
Anmelden
Abmelden
SPONSOREN