Mixkatalog
 Einloggen
Login
Passwort

Deep Dance 014 Hits: 3  

Deep Dance 014


Kurzbeschreibung:
Deep Records präsentiert Deep Dance Volume 14. Gemixt von DJ Deep. Leider gibt es keine Tracklisten mehr dazu. Classic Mix ist der Decadance 3, Track 4 stammt aus dem "DMC 46 The Mixes 2". Rock Mix ist der Voice Of Rock von Mastermix Issue 67, gemixt von Two Little Boys.
 
Crew/DJ: Deep Records Reihe: DD Serie by Deep
Stil: Dance Erscheinungsjahr: 1992
Anzahl Tonträger: 1 Spielzeit: 71:53
Trackliste:
    Deep Dance Take 14:
    Spieldauer 25'58
  1. Intro (The Theme From Terminator 2)
  2. Michael Jackson - Remember The Time
  3. The Pasadenas - I'm Doing Fine Now
  4. Kym Sims - Take My Advice
  5. Adeva - Don't Let It Show On Your Face
  6. Sezen Aksu - Hadi Bakalım
  7. ???
  8. Arthur Baker feat. Nikeeta - I.O.U.
  9. DJ Atomic Herbie - Atomic House
  10. 2 Unlimited - Twilight Zone
  11. Afrika Bambaataa - Just Get Up & Dance
  12. Candy Beat - Sax'y
  13. New Atlantic - I Know
  14. L.A.N. (Local Area Network) - Get Into My Life
  15. Magic Marmalade - Do It Now
  16. DJ Pierre Feroldi - Feel The Hit
  17. Right Said Fred - Don't Talk Just Kiss
  18. ???
  19. Snap - Rhythm Is A Dancer
  20. 2 Unlimited - Twilight Zone
  21. Misteria - Who Killed JFK
  22. Rozalla - Are You Ready To Fly
  23. Clivilles & Cole - A Deeper Love
  24. U96 - I Wanna Be A Kennedy
  25. The Ultimate Seduction - The Ultimate Seduction
  26. Fortuna - Oh Fortuna
  27. Obscure FM - Michael Jackson Is In Heaven Now
  28. Noys - Ave Maria (Walz That Noys)
  29. Snap! feat. Niki Haris - Do You See The Light (Looking For)
  30. Prayers - Imagination
  31. Paris Red - Ain't No Mountain High Enough
    Classic Mix: Decadance 3
    Spieldauer 28'06
  32. ELO - Ticket To The Moon
  33. Captain Sensible - Wot
  34. Taco - Puttin On The Riz
  35. Men without Hats - The Safety Dance
  36. Bob Marley - Could You Be Loved
  37. Wang Chung - Dance Hall Days
  38. Men At Work - Down Under
  39. Gary Byrd & The GB - The Crown
  40. Valerie Dore - The Night
  41. The Earons - Land Of Hunger
  42. Stephanie Mills - The Medicine Song
  43. Bar-Kays - Sexomatic
  44. Double Dee & Steinski - Lesson One
  45. Whiz Kid - Play That Beat
  46. Scotch - Disco Band
  47. Montana Sextet - Who Needs Enemies?
  48. Rockers Revenge - Walking On Sunshine '82
  49. Fox The Fox - Precious Little Diamond
  50. Michael Jackson - Thriller
  51. Ryan Paris - Dolce Vita
  52. Mirage - No More No War
  53. Ivan - Fotonovela
  54. Diana Ross - Swept Away
  55. Cyndi Lauper - Girls Just Want To Have Fun
  56. The Flirts - Passion
  57. Peter Brown - Love Is Just The Game
  58. The Limit - Say Yeah
  59. Rockwell feat. Michael Jackson - Somebody's Watching Me
  60. Hugh Bullen - Alisand
  61. Cashmere - Can I
  62. Eugene Wilde - Let Her Feel It
  63. Risque - Burn It Up, Mr. DJ
  64. Steve Miller Band - Abracadabra
  65. F.R. David - Words Don't Come Easy
  66. Sheryl Lee Ralph - In The Evening
  67. Lime - Unexpected Lovers
  68. Miquel Brown - So Many Men, So Little Time
  69. Hazell Dean - Searching (I Got To Find A Man)
  70. Dead Or Alive - You Spin Me Round (Like A Record)
  71. Evelyn Thomas - High Energy
  72. Marsha Raven - Catch Me (I'm Falling In Love)
  73. INXS - Original Sin
  74. Gloria Gaynor - I Am What I Am
    Rock Mix:
    Spieldauer 9'43
  75. Deep Purple - Smoke On The Water
  76. Aerosmith - Walk This Way
  77. Rainbow - Since You've Been Gone
  78. ZZ Top - Gimme All Your Lovin'
  79. Joan Jett - I Hate Myself For Loving You
  80. Kiss - Crazy Crazy Nights
  81. Status Quo - Rollover Lay Down
  82. Alice Cooper - Schools Out
  83. Whitesnake - Give Me All Your Love
  84. Queen - We Will Rock You
  85. John Farnham - You're The Voice
    Bonustrack:
    Spieldauer 8'04
  86. Madonna - True Blue (DMC-Remix)
Cue-Informationen:

FILE "filename.mp3" MP3 
  TRACK 01 AUDIO
    INDEX 01 00:00:00
  TRACK 02 AUDIO
    INDEX 01 26:00:67
  TRACK 03 AUDIO
    INDEX 01 54:09:64
  TRACK 04 AUDIO
    INDEX 01 63:54:71
Wertung: (1)   Hinzugefügt: 23 December 2009
RSS Feed
RSS Feed
Sprache
Deutsch Englisch Französisch
Mixsuche
Suchbegriff
Genauer Wortlaut
Alle Worte (UND)
Ein Wort (ODER)
Statistik
14860 Mixe eingetragen
14547 Tracklisten
Newsletter
E-Mail
Anmelden
Abmelden
SPONSOREN