Mixkatalog
SPONSOREN
 Einloggen
Login
Passwort

A New Mix Is Born Hits: 285  

A New Mix Is Born


Kurzbeschreibung:
Studio 66 präsentiert A New Mix Is Born Episode 1, gemixt von DJ Ghost.
 
Crew/DJ: Studio 66 Reihe: Sonstige
Stil: Dance Erscheinungsjahr: 2004
Anzahl Tonträger: 1 Spielzeit: 67:27
Trackliste:
Cue-Informationen:

FILE "filename.mp3" MP3
  TRACK 01 AUDIO
    INDEX 01 00:00:00
  TRACK 02 AUDIO
    INDEX 01 00:22:44
  TRACK 03 AUDIO
    INDEX 01 01:26:59
  TRACK 04 AUDIO
    INDEX 01 01:57:12
  TRACK 05 AUDIO
    INDEX 01 02:32:44
  TRACK 06 AUDIO
    INDEX 01 03:09:53
  TRACK 07 AUDIO
    INDEX 01 03:33:26
  TRACK 08 AUDIO
    INDEX 01 05:55:07
  TRACK 09 AUDIO
    INDEX 01 06:33:03
  TRACK 10 AUDIO
    INDEX 01 07:03:32
  TRACK 11 AUDIO
    INDEX 01 07:20:22
  TRACK 12 AUDIO
    INDEX 01 07:33:59
  TRACK 13 AUDIO
    INDEX 01 08:03:05
  TRACK 14 AUDIO
    INDEX 01 08:16:44
  TRACK 15 AUDIO
    INDEX 01 09:00:20
  TRACK 16 AUDIO
    INDEX 01 10:07:56
  TRACK 17 AUDIO
    INDEX 01 12:31:13
  TRACK 18 AUDIO
    INDEX 01 13:40:28
  TRACK 19 AUDIO
    INDEX 01 14:24:13
  TRACK 20 AUDIO
    INDEX 01 14:34:18
  TRACK 21 AUDIO
    INDEX 01 14:47:58
  TRACK 22 AUDIO
    INDEX 01 15:18:10
  TRACK 23 AUDIO
    INDEX 01 15:49:15
  TRACK 24 AUDIO
    INDEX 01 17:07:63
  TRACK 25 AUDIO
    INDEX 01 19:53:30
  TRACK 26 AUDIO
    INDEX 01 23:49:56
  TRACK 27 AUDIO
    INDEX 01 25:24:16
  TRACK 28 AUDIO
    INDEX 01 28:21:25
  TRACK 29 AUDIO
    INDEX 01 29:42:29
  TRACK 30 AUDIO
    INDEX 01 32:51:27
  TRACK 31 AUDIO
    INDEX 01 33:45:21
  TRACK 32 AUDIO
    INDEX 01 34:15:53
  TRACK 33 AUDIO
    INDEX 01 35:40:09
  TRACK 34 AUDIO
    INDEX 01 36:10:40
  TRACK 35 AUDIO
    INDEX 01 36:44:24
  TRACK 36 AUDIO
    INDEX 01 38:03:47
  TRACK 37 AUDIO
    INDEX 01 38:54:59
  TRACK 38 AUDIO
    INDEX 01 40:22:20
  TRACK 39 AUDIO
    INDEX 01 41:22:62
  TRACK 40 AUDIO
    INDEX 01 43:45:41
  TRACK 41 AUDIO
    INDEX 01 46:02:26
  TRACK 42 AUDIO
    INDEX 01 50:12:33
  TRACK 43 AUDIO
    INDEX 01 53:28:24
  TRACK 44 AUDIO
    INDEX 01 56:50:70
  TRACK 45 AUDIO
    INDEX 01 59:43:16
  TRACK 46 AUDIO
    INDEX 01 63:53:22
Wertung: (2)  
Hinzugefügt: 20 October 2011
RSS Feed
RSS Feed
Sprache
Deutsch Englisch Französisch
Mixsuche
Suchbegriff
Genauer Wortlaut
Alle Worte (UND)
Ein Wort (ODER)
Statistik
36050 Mixe eingetragen
34108 Tracklisten
Newsletter
E-Mail
Anmelden
Abmelden
SPONSOREN