Mixkatalog
 Einloggen
Login
Passwort

Déjà Vu Megamix 1 Hits: 129  

Déjà Vu Megamix 1


Kurzbeschreibung:
Déjà Vu Megamix Volume 1. Mix Of 85 Euro Hits.
 
Crew/DJ: Various D Reihe:  
Stil: Dance Erscheinungsjahr: 2004
Anzahl Tonträger: 1 Spielzeit: 73:05
Trackliste:
Cue-Informationen:

FILE "filename.mp3" MP3
  TRACK 01 AUDIO
    INDEX 01 00:00:00
  TRACK 02 AUDIO
    INDEX 01 00:52:30
  TRACK 03 AUDIO
    INDEX 01 01:09:23
  TRACK 04 AUDIO
    INDEX 01 01:39:56
  TRACK 05 AUDIO
    INDEX 01 02:20:21
  TRACK 06 AUDIO
    INDEX 01 03:05:45
  TRACK 07 AUDIO
    INDEX 01 03:46:12
  TRACK 08 AUDIO
    INDEX 01 04:14:59
  TRACK 09 AUDIO
    INDEX 01 05:10:42
  TRACK 10 AUDIO
    INDEX 01 05:37:45
  TRACK 11 AUDIO
    INDEX 01 06:55:31
  TRACK 12 AUDIO
    INDEX 01 07:36:25
  TRACK 13 AUDIO
    INDEX 01 08:31:12
  TRACK 14 AUDIO
    INDEX 01 09:17:65
  TRACK 15 AUDIO
    INDEX 01 10:00:23
  TRACK 16 AUDIO
    INDEX 01 11:00:22
  TRACK 17 AUDIO
    INDEX 01 11:27:55
  TRACK 18 AUDIO
    INDEX 01 11:55:12
  TRACK 19 AUDIO
    INDEX 01 12:50:01
  TRACK 20 AUDIO
    INDEX 01 13:44:66
  TRACK 21 AUDIO
    INDEX 01 14:26:02
  TRACK 22 AUDIO
    INDEX 01 15:03:55
  TRACK 23 AUDIO
    INDEX 01 15:31:12
  TRACK 24 AUDIO
    INDEX 01 15:58:44
  TRACK 25 AUDIO
    INDEX 01 16:39:55
  TRACK 26 AUDIO
    INDEX 01 17:15:54
  TRACK 27 AUDIO
    INDEX 01 17:48:22
  TRACK 28 AUDIO
    INDEX 01 18:15:54
  TRACK 29 AUDIO
    INDEX 01 18:58:44
  TRACK 30 AUDIO
    INDEX 01 19:39:54
  TRACK 31 AUDIO
    INDEX 01 20:07:15
  TRACK 32 AUDIO
    INDEX 01 20:22:55
  TRACK 33 AUDIO
    INDEX 01 20:50:42
  TRACK 34 AUDIO
    INDEX 01 21:18:28
  TRACK 35 AUDIO
    INDEX 01 22:14:02
  TRACK 36 AUDIO
    INDEX 01 22:41:64
  TRACK 37 AUDIO
    INDEX 01 23:55:58
  TRACK 38 AUDIO
    INDEX 01 24:09:36
  TRACK 39 AUDIO
    INDEX 01 24:37:23
  TRACK 40 AUDIO
    INDEX 01 25:33:28
  TRACK 41 AUDIO
    INDEX 01 26:01:45
  TRACK 42 AUDIO
    INDEX 01 26:59:63
  TRACK 43 AUDIO
    INDEX 01 27:36:67
  TRACK 44 AUDIO
    INDEX 01 28:19:38
  TRACK 45 AUDIO
    INDEX 01 28:51:37
  TRACK 46 AUDIO
    INDEX 01 29:34:14
  TRACK 47 AUDIO
    INDEX 01 30:24:25
  TRACK 48 AUDIO
    INDEX 01 30:53:25
  TRACK 49 AUDIO
    INDEX 01 31:51:39
  TRACK 50 AUDIO
    INDEX 01 32:37:32
  TRACK 51 AUDIO
    INDEX 01 34:16:71
  TRACK 52 AUDIO
    INDEX 01 35:40:31
  TRACK 53 AUDIO
    INDEX 01 36:43:01
  TRACK 54 AUDIO
    INDEX 01 37:52:43
  TRACK 55 AUDIO
    INDEX 01 39:06:36
  TRACK 56 AUDIO
    INDEX 01 39:51:53
  TRACK 57 AUDIO
    INDEX 01 41:01:20
  TRACK 58 AUDIO
    INDEX 01 41:56:69
  TRACK 59 AUDIO
    INDEX 01 42:54:24
  TRACK 60 AUDIO
    INDEX 01 43:49:72
  TRACK 61 AUDIO
    INDEX 01 45:00:56
  TRACK 62 AUDIO
    INDEX 01 46:35:48
  TRACK 63 AUDIO
    INDEX 01 47:18:57
  TRACK 64 AUDIO
    INDEX 01 48:01:55
  TRACK 65 AUDIO
    INDEX 01 49:32:44
  TRACK 66 AUDIO
    INDEX 01 50:54:66
  TRACK 67 AUDIO
    INDEX 01 51:56:44
  TRACK 68 AUDIO
    INDEX 01 53:06:66
  TRACK 69 AUDIO
    INDEX 01 53:48:01
  TRACK 70 AUDIO
    INDEX 01 54:53:12
  TRACK 71 AUDIO
    INDEX 01 56:46:23
  TRACK 72 AUDIO
    INDEX 01 57:56:44
  TRACK 73 AUDIO
    INDEX 01 59:12:01
  TRACK 74 AUDIO
    INDEX 01 60:13:55
  TRACK 75 AUDIO
    INDEX 01 61:29:12
  TRACK 76 AUDIO
    INDEX 01 62:51:33
  TRACK 77 AUDIO
    INDEX 01 64:20:44
  TRACK 78 AUDIO
    INDEX 01 65:17:10
  TRACK 79 AUDIO
    INDEX 01 66:26:64
  TRACK 80 AUDIO
    INDEX 01 67:21:07
  TRACK 81 AUDIO
    INDEX 01 68:34:15
  TRACK 82 AUDIO
    INDEX 01 69:24:67
  TRACK 83 AUDIO
    INDEX 01 70:34:14
  TRACK 84 AUDIO
    INDEX 01 71:28:20
  TRACK 85 AUDIO
    INDEX 01 72:25:26
Wertung: (1)  
Hinzugefügt: 12 September 2011
RSS Feed
RSS Feed
Sprache
Deutsch Englisch Französisch
Mixsuche
Suchbegriff
Genauer Wortlaut
Alle Worte (UND)
Ein Wort (ODER)
Statistik
13022 Mixe eingetragen
12730 Tracklisten
Newsletter
E-Mail
Anmelden
Abmelden
SPONSOREN