Mixkatalog
 Einloggen
Login
Passwort

Disco Musica 10 Hits: 316  

Disco Musica 10


Kurzbeschreibung:
Deep präsentiert Disco Musica The 10. Edition.
 
Crew/DJ: Deep Reihe: Deep Disco Musica
Stil: Dance Erscheinungsjahr: 2005
Anzahl Tonträger: 1 Spielzeit: 75:36
Trackliste:
Cue-Informationen:

FILE "filename.mp3" MP3
  TRACK 01 AUDIO
    INDEX 01 00:00:00
  TRACK 02 AUDIO
    INDEX 01 00:25:64
  TRACK 03 AUDIO
    INDEX 01 02:46:44
  TRACK 04 AUDIO
    INDEX 01 04:16:68
  TRACK 05 AUDIO
    INDEX 01 05:27:50
  TRACK 06 AUDIO
    INDEX 01 06:49:74
  TRACK 07 AUDIO
    INDEX 01 07:58:43
  TRACK 08 AUDIO
    INDEX 01 09:06:64
  TRACK 09 AUDIO
    INDEX 01 11:15:07
  TRACK 10 AUDIO
    INDEX 01 14:57:27
  TRACK 11 AUDIO
    INDEX 01 19:07:38
  TRACK 12 AUDIO
    INDEX 01 22:43:02
  TRACK 13 AUDIO
    INDEX 01 26:04:09
  TRACK 14 AUDIO
    INDEX 01 29:26:30
  TRACK 15 AUDIO
    INDEX 01 34:02:68
  TRACK 16 AUDIO
    INDEX 01 37:54:25
  TRACK 17 AUDIO
    INDEX 01 40:45:02
  TRACK 18 AUDIO
    INDEX 01 46:33:08
  TRACK 19 AUDIO
    INDEX 01 52:32:55
  TRACK 20 AUDIO
    INDEX 01 58:32:56
  TRACK 21 AUDIO
    INDEX 01 62:19:12
  TRACK 22 AUDIO
    INDEX 01 67:00:15
  TRACK 23 AUDIO
    INDEX 01 70:13:21
  TRACK 24 AUDIO
    INDEX 01 73:39:21
Wertung: (1)  
Hinzugefügt: 9 July 2011
RSS Feed
RSS Feed
Sprache
Deutsch Englisch Französisch
Mixsuche
Suchbegriff
Genauer Wortlaut
Alle Worte (UND)
Ein Wort (ODER)
Statistik
12441 Mixe eingetragen
12169 Tracklisten
Newsletter
E-Mail
Anmelden
Abmelden
SPONSOREN