Mixkatalog
 Einloggen
Login
Passwort

The Sound Of The 80s I Hits: 126  

The Sound Of The 80s I


Kurzbeschreibung:
Deep präsentiert The Sound Of The 80's Volume 1. Der Mix entspricht dem 80s Party Mix.
 
Crew/DJ: Deep Reihe: Deep 80ties
Stil: Pop Erscheinungsjahr: 2002
Anzahl Tonträger: 1 Spielzeit: 77:11
Trackliste:
Cue-Informationen:

FILE "filename.mp3" MP3
  TRACK 01 AUDIO
    INDEX 01 00:00:00
  TRACK 02 AUDIO
    INDEX 01 00:23:43
  TRACK 03 AUDIO
    INDEX 01 00:59:31
  TRACK 04 AUDIO
    INDEX 01 04:11:00
  TRACK 05 AUDIO
    INDEX 01 06:50:44
  TRACK 06 AUDIO
    INDEX 01 08:47:14
  TRACK 07 AUDIO
    INDEX 01 10:45:50
  TRACK 08 AUDIO
    INDEX 01 11:55:47
  TRACK 09 AUDIO
    INDEX 01 12:39:44
  TRACK 10 AUDIO
    INDEX 01 13:28:49
  TRACK 11 AUDIO
    INDEX 01 14:29:09
  TRACK 12 AUDIO
    INDEX 01 16:18:43
  TRACK 13 AUDIO
    INDEX 01 17:23:61
  TRACK 14 AUDIO
    INDEX 01 18:05:30
  TRACK 15 AUDIO
    INDEX 01 19:44:35
  TRACK 16 AUDIO
    INDEX 01 20:25:50
  TRACK 17 AUDIO
    INDEX 01 22:17:67
  TRACK 18 AUDIO
    INDEX 01 23:46:53
  TRACK 19 AUDIO
    INDEX 01 24:33:29
  TRACK 20 AUDIO
    INDEX 01 26:33:68
  TRACK 21 AUDIO
    INDEX 01 29:19:52
  TRACK 22 AUDIO
    INDEX 01 31:40:08
  TRACK 23 AUDIO
    INDEX 01 32:11:38
  TRACK 24 AUDIO
    INDEX 01 32:58:44
  TRACK 25 AUDIO
    INDEX 01 34:32:69
  TRACK 26 AUDIO
    INDEX 01 34:55:38
  TRACK 27 AUDIO
    INDEX 01 36:10:54
  TRACK 28 AUDIO
    INDEX 01 36:58:30
  TRACK 29 AUDIO
    INDEX 01 38:04:12
  TRACK 30 AUDIO
    INDEX 01 38:53:28
  TRACK 31 AUDIO
    INDEX 01 40:42:49
  TRACK 32 AUDIO
    INDEX 01 41:58:13
  TRACK 33 AUDIO
    INDEX 01 42:35:44
  TRACK 34 AUDIO
    INDEX 01 42:58:59
  TRACK 35 AUDIO
    INDEX 01 43:29:15
  TRACK 36 AUDIO
    INDEX 01 45:14:26
  TRACK 37 AUDIO
    INDEX 01 45:50:70
  TRACK 38 AUDIO
    INDEX 01 48:03:05
  TRACK 39 AUDIO
    INDEX 01 49:15:74
  TRACK 40 AUDIO
    INDEX 01 49:59:57
  TRACK 41 AUDIO
    INDEX 01 50:29:73
  TRACK 42 AUDIO
    INDEX 01 51:14:33
  TRACK 43 AUDIO
    INDEX 01 51:57:39
  TRACK 44 AUDIO
    INDEX 01 53:00:48
  TRACK 45 AUDIO
    INDEX 01 54:54:56
  TRACK 46 AUDIO
    INDEX 01 55:55:55
  TRACK 47 AUDIO
    INDEX 01 57:12:36
  TRACK 48 AUDIO
    INDEX 01 58:43:31
  TRACK 49 AUDIO
    INDEX 01 59:21:49
  TRACK 50 AUDIO
    INDEX 01 60:07:24
  TRACK 51 AUDIO
    INDEX 01 60:47:58
  TRACK 52 AUDIO
    INDEX 01 61:41:59
  TRACK 53 AUDIO
    INDEX 01 62:26:08
  TRACK 54 AUDIO
    INDEX 01 68:57:22
Wertung: ()  
Hinzugefügt: 9 July 2011
Bewerte als Erster diesen Mix:
RSS Feed
RSS Feed
Sprache
Deutsch Englisch Französisch
Mixsuche
Suchbegriff
Genauer Wortlaut
Alle Worte (UND)
Ein Wort (ODER)
Statistik
13027 Mixe eingetragen
12735 Tracklisten
Newsletter
E-Mail
Anmelden
Abmelden
SPONSOREN