Mixkatalog
 Einloggen
Login
Passwort

Megamix Chart Hits 2019 Hits: 180  

Megamix Chart Hits 2019


Kurzbeschreibung:
Move-Ya präsentiert Megamix Chart Hits 2019, gemixt von DJ Flim Flam.
 
Crew/DJ: Move-Ya Reihe: Charts Megamix
Stil: Dance Erscheinungsjahr: 2019
Anzahl Tonträger: 1 Spielzeit: 78
Trackliste:
Cue-Informationen:

PERFORMER "Move Ya"
TITLE "Megamiy Chart Hits 2019"
FILE "Move Ya - Megamiy Chart Hits 2019.mp3" MP3
  TRACK 01 AUDIO
    TITLE "Stück 1"
    INDEX 01 00:00:00
  TRACK 02 AUDIO
    TITLE "Stück 2"
    INDEX 01 01:02:26
  TRACK 03 AUDIO
    TITLE "Stück 3"
    INDEX 01 02:32:26
  TRACK 04 AUDIO
    TITLE "Stück 4"
    INDEX 01 03:17:25
  TRACK 05 AUDIO
    TITLE "Stück 5"
    INDEX 01 04:47:25
  TRACK 06 AUDIO
    TITLE "Stück 6"
    INDEX 01 06:02:24
  TRACK 07 AUDIO
    TITLE "Stück 7"
    INDEX 01 07:47:26
  TRACK 08 AUDIO
    TITLE "Stück 8"
    INDEX 01 09:47:25
  TRACK 09 AUDIO
    TITLE "Stück 9"
    INDEX 01 11:17:08
  TRACK 10 AUDIO
    TITLE "Stück 10"
    INDEX 01 12:01:57
  TRACK 11 AUDIO
    TITLE "Stück 11"
    INDEX 01 13:45:71
  TRACK 12 AUDIO
    TITLE "Stück 12"
    INDEX 01 16:14:58
  TRACK 13 AUDIO
    TITLE "Stück 13"
    INDEX 01 18:13:64
  TRACK 14 AUDIO
    TITLE "Stück 14"
    INDEX 01 20:05:06
  TRACK 15 AUDIO
    TITLE "Stück 15"
    INDEX 01 21:11:41
  TRACK 16 AUDIO
    TITLE "Stück 16"
    INDEX 01 22:54:69
  TRACK 17 AUDIO
    TITLE "Stück 17"
    INDEX 01 25:22:47
  TRACK 18 AUDIO
    TITLE "Stück 18"
    INDEX 01 26:51:17
  TRACK 19 AUDIO
    TITLE "Stück 19"
    INDEX 01 27:50:23
  TRACK 20 AUDIO
    TITLE "Stück 20"
    INDEX 01 29:18:19
  TRACK 21 AUDIO
    TITLE "Stück 21"
    INDEX 01 30:31:40
  TRACK 22 AUDIO
    TITLE "Stück 22"
    INDEX 01 32:43:33
  TRACK 23 AUDIO
    TITLE "Stück 23"
    INDEX 01 35:09:00
  TRACK 24 AUDIO
    TITLE "Stück 24"
    INDEX 01 36:36:20
  TRACK 25 AUDIO
    TITLE "Stück 25"
    INDEX 01 37:34:34
  TRACK 26 AUDIO
    TITLE "Stück 26"
    INDEX 01 38:32:15
  TRACK 27 AUDIO
    TITLE "Stück 27"
    INDEX 01 39:44:29
  TRACK 28 AUDIO
    TITLE "Stück 28"
    INDEX 01 40:42:10
  TRACK 29 AUDIO
    TITLE "Stück 29"
    INDEX 01 43:06:35
  TRACK 30 AUDIO
    TITLE "Stück 30"
    INDEX 01 45:15:33
  TRACK 31 AUDIO
    TITLE "Stück 31"
    INDEX 01 46:55:48
  TRACK 32 AUDIO
    TITLE "Stück 32"
    INDEX 01 47:52:40
  TRACK 33 AUDIO
    TITLE "Stück 33"
    INDEX 01 49:17:65
  TRACK 34 AUDIO
    TITLE "Stück 34"
    INDEX 01 51:40:06
  TRACK 35 AUDIO
    TITLE "Stück 35"
    INDEX 01 52:36:73
  TRACK 36 AUDIO
    TITLE "Stück 36"
    INDEX 01 54:30:56
  TRACK 37 AUDIO
    TITLE "Stück 37"
    INDEX 01 55:41:64
  TRACK 38 AUDIO
    TITLE "Stück 38"
    INDEX 01 58:17:59
  TRACK 39 AUDIO
    TITLE "Stück 39"
    INDEX 01 60:10:54
  TRACK 40 AUDIO
    TITLE "Stück 40"
    INDEX 01 61:07:15
  TRACK 41 AUDIO
    TITLE "Stück 41"
    INDEX 01 62:17:20
  TRACK 42 AUDIO
    TITLE "Stück 42"
    INDEX 01 64:37:30
  TRACK 43 AUDIO
    TITLE "Stück 43"
    INDEX 01 65:46:73
  TRACK 44 AUDIO
    TITLE "Stück 44"
    INDEX 01 66:42:47
  TRACK 45 AUDIO
    TITLE "Stück 45"
    INDEX 01 67:52:15
  TRACK 46 AUDIO
    TITLE "Stück 46"
    INDEX 01 70:24:69
  TRACK 47 AUDIO
    TITLE "Stück 47"
    INDEX 01 71:47:61
  TRACK 48 AUDIO
    TITLE "Stück 48"
    INDEX 01 73:38:25
  TRACK 49 AUDIO
    TITLE "Stück 49"
    INDEX 01 76:10:05
  TRACK 50 AUDIO
    TITLE "Stück 50"
    INDEX 01 76:51:15
  TRACK 51 AUDIO
    TITLE "Stück 51"
    INDEX 01 78:13:36
Wertung: (1)  
Hinzugefügt: 10 August 2019
RSS Feed
RSS Feed
Sprache
Deutsch Englisch Französisch
Mixsuche
Suchbegriff
Genauer Wortlaut
Alle Worte (UND)
Ein Wort (ODER)
Statistik
12279 Mixe eingetragen
12008 Tracklisten
Newsletter
E-Mail
Anmelden
Abmelden
SPONSOREN