Mixkatalog
 Einloggen
Login
Passwort

Club Life From Europe 17 Hits: 66  

Club Life From Europe 17


Kurzbeschreibung:
Tom Miles (DJ Thomas) präsentiert Club Life From Europe Volume 17
 
Crew/DJ: DJ Thomas Reihe: Club Life
Stil: Dance Erscheinungsjahr: 2018
Anzahl Tonträger: 1 Spielzeit: 79.30
Trackliste:
Tracklist nicht öffentlich...
Cue-Informationen:

FILE "filename.mp3" MP3
  TRACK 01 AUDIO
    INDEX 01 00:00:00
  TRACK 02 AUDIO
    INDEX 01 00:44:70
  TRACK 03 AUDIO
    INDEX 01 03:46:43
  TRACK 04 AUDIO
    INDEX 01 06:50:27
  TRACK 05 AUDIO
    INDEX 01 09:21:04
  TRACK 06 AUDIO
    INDEX 01 12:16:51
  TRACK 07 AUDIO
    INDEX 01 15:43:04
  TRACK 08 AUDIO
    INDEX 01 18:11:53
  TRACK 09 AUDIO
    INDEX 01 20:30:37
  TRACK 10 AUDIO
    INDEX 01 24:08:51
  TRACK 11 AUDIO
    INDEX 01 27:36:64
  TRACK 12 AUDIO
    INDEX 01 30:37:59
  TRACK 13 AUDIO
    INDEX 01 34:10:41
  TRACK 14 AUDIO
    INDEX 01 36:20:27
  TRACK 15 AUDIO
    INDEX 01 39:33:14
  TRACK 16 AUDIO
    INDEX 01 42:55:04
  TRACK 17 AUDIO
    INDEX 01 44:23:49
  TRACK 18 AUDIO
    INDEX 01 46:35:04
  TRACK 19 AUDIO
    INDEX 01 49:35:04
  TRACK 20 AUDIO
    INDEX 01 52:27:60
  TRACK 21 AUDIO
    INDEX 01 54:44:18
  TRACK 22 AUDIO
    INDEX 01 59:14:35
  TRACK 23 AUDIO
    INDEX 01 61:43:05
  TRACK 24 AUDIO
    INDEX 01 63:58:07
  TRACK 25 AUDIO
    INDEX 01 66:53:39
  TRACK 26 AUDIO
    INDEX 01 69:19:12
  TRACK 27 AUDIO
    INDEX 01 72:22:05
  TRACK 28 AUDIO
    INDEX 01 76:04:10
Wertung: (1)  
Hinzugefügt: 22 May 2019
RSS Feed
RSS Feed
Sprache
Deutsch Englisch Französisch
Mixsuche
Suchbegriff
Genauer Wortlaut
Alle Worte (UND)
Ein Wort (ODER)
Statistik
12788 Mixe eingetragen
12531 Tracklisten
Newsletter
E-Mail
Anmelden
Abmelden
SPONSOREN