Mixkatalog
 Einloggen
Login
Passwort

Dance Computer 93 Part 1 Hits: 68  

Dance Computer 93 Part 1


Kurzbeschreibung:
The Unity Mixers Luc Rigaux & Patrick Samoy präsentieren den Dance Computer 93 Part 1.
 
Crew/DJ: The Unity Mixers Reihe: Dance Computer
Stil: Dance Erscheinungsjahr: 1993
Anzahl Tonträger: 1 Spielzeit: 22:06
Trackliste:
Cue-Informationen:

FILE "filename.mp3" MP3
  TRACK 01 AUDIO
    INDEX 01 00:00:00
  TRACK 02 AUDIO
    INDEX 01 06:42:06
  TRACK 03 AUDIO
    INDEX 01 17:21:46
Wertung: ()  
Hinzugefügt: 11 September 2009
Bewerte als Erster diesen Mix:
RSS Feed
RSS Feed
Sprache
Deutsch Englisch Französisch
Mixsuche
Suchbegriff
Genauer Wortlaut
Alle Worte (UND)
Ein Wort (ODER)
Statistik
13082 Mixe eingetragen
12792 Tracklisten
Newsletter
E-Mail
Anmelden
Abmelden
SPONSOREN