Mixkatalog
 Einloggen
Login
Passwort

Deep Dance 084 Hits: 4  

Deep Dance 084


Kurzbeschreibung:
Deep Records präsentiert Deep Dance 84, Version 2005. Eine weitere Ausgabe der Edition Reihe. Auch Egypt Reihe oder Serie genannt.
 
Crew/DJ: Deep Records Reihe: DD Serie Edition
Stil: Dance Erscheinungsjahr: 2005
Anzahl Tonträger: 1 Spielzeit: 78:33
Trackliste:
    Deep Dance Take 84:
    Spieldauer 37'21
  1. Intro
  2. Futureforce feat. Mandy - Wake Me Up When September Ends
  3. Slinkee Minx - Summer Rain
  4. Dario G - Made Of Stone
  5. Sylver - Take Me Back
  6. Lizzy B - Our Summer
  7. DJ Pinson - Forever
  8. Paffendorf - Stop That Shit
  9. Jessy - How Long
  10. Raccoon - Summer Vibez
  11. Tova - Rebel
  12. Lazard - Little Star
  13. 2 Brothers On The 1st Floor - The Drum Beat Goes
  14. Parla & Paradoux - Lose To Your Eyes
  15. Kiker - This Moves
  16. DJ Taylor & Flow - Pussyshavers
  17. 2 Vibez - Just 4 You
  18. Stagedivaz - Rockin' Da Floor
  19. Spring Fever - Alone
  20. Bangbros - Banging In Dreamland
  21. Bass Up - Hold Me Back
  22. Barcera - Secret Of Love
  23. Klubbingman feat. Trixi Delgado - Revolution
  24. Special D - Reckless
  25. Officina Emotiva - The Power Of Love
  26. Bananarama - Move In My Direction
  27. CJ Stone - Call My Name
  28. Aventura - Angelito
  29. Da Playaz vs. Clea - We Don't Have To
  30. Dared - Sun (Teuduh Du Te Te)
    House Part:
    Spieldauer 25'12
  31. Intro
  32. The Unbelievables - So Get Up
  33. Sandwich - On The Beach
  34. Moustache feat. Melinda Jackson - Everywhere
  35. Velvet - Rock Down To Electric Avenue
  36. Memi vs. Baldas - Girls Just Wanna Have Fxxk
  37. Vinylshakers - Club Tropicana
  38. Uniting Nation - You & Me
  39. Orange - Vale Bamba
  40. Roman Flügel - Geht's Noch
  41. Spin - 2 Nite
  42. Disco Platino - This Summer
  43. DJs @ Work - Your Love
  44. Conways feat. Nick Straker Band - A Walk In The Park
  45. Party Pimps - Give It Up
  46. Groove Agents - The Day That I Die
  47. D3D4 - Sun Fun
  48. DJ Morgan - What Is Love
  49. Disco Bee - This Is My Love
  50. DJ Tatana feat. Morris - Today Is Tomorrow
  51. Heiko & Maiko - Sonnenschein
  52. DJ Manian - Heat Of The Moment
    Slow Part:
    Spieldauer 16'00
  53. Intro
  54. Missy Elliott - Teary Eyed
  55. Matthias Reim - Ich Hab Geträumt Von Dir
  56. Lady Scar - Königin Der Welt
  57. Tom Jones - My Way
  58. Stephanie D. - Truly Yours
  59. Die Firma - Die Eine 2005
  60. Nelly - N Dey Sey
  61. Glashaus - Du
  62. Toni L & Def Cut - Gäste
  63. Craig David - All The Way
  64. Mandy & Randy - B-B-Baby
Cue-Informationen:

FILE "filename.mp3" MP3
  TRACK 01 AUDIO
    INDEX 01 00:00:00
  TRACK 02 AUDIO
    INDEX 01 00:30:52
  TRACK 03 AUDIO
    INDEX 01 37:21:45
  TRACK 04 AUDIO
    INDEX 01 62:34:01
Wertung: (1)   Hinzugefügt: 6 April 2011
RSS Feed
RSS Feed
Sprache
Deutsch Englisch Französisch
Mixsuche
Suchbegriff
Genauer Wortlaut
Alle Worte (UND)
Ein Wort (ODER)
Statistik
14860 Mixe eingetragen
14547 Tracklisten
Newsletter
E-Mail
Anmelden
Abmelden
SPONSOREN