Mixkatalog
 Einloggen
Login
Passwort

Deep Dance 079 Hits: 2  

Deep Dance 079


Kurzbeschreibung:
Deep Records präsentiert Deep Dance 79, Version 2004. Eine weitere Ausgabe der Edition Reihe. Auch Egypt Reihe oder Serie genannt.
 
Crew/DJ: Deep Records Reihe: DD Serie Edition
Stil: Dance Erscheinungsjahr: 2004
Anzahl Tonträger: 1 Spielzeit: 77:53
Trackliste:
    Deep Dance Take 79:
    Spieldauer 38'32
  1. Intro
  2. Scooter - One (Always Hardcore)
  3. 89ers - Words
  4. Redcode - Miracles
  5. Gigi Robbers - Attenzione Toujours
  6. Mysterio - Everlasting Love 2005
  7. Bass-T - P.O.W.E.R.
  8. C-Bool - Would You Feel
  9. Bulldozzer - Face The Base
  10. Scarf! - Odysee
  11. Tune Up - Start The Game
  12. Redwing - Rocket
  13. Freddy Fader meets Locana - Bom Bom Suenan
  14. Stacccato - Changes
  15. Groove Coverage - Runaway
  16. DJ Satomi - Waves
  17. No Chains - Colour Of Your Love
  18. DJ Pain & Greydee - Your Heart Keeps Burning
  19. Clubbticket - You Got Me
  20. 2 Elements - I Can Fly
  21. Fantasy Project - Take Me Away
  22. Damae feat. Londonbeat - Ive Been Thinking About You
  23. Clubraiders - Move You Hands Up
  24. Trancecore Project - Infinity
  25. DJ Matys & D Gor - Orgasm
  26. Floorburner - Get Ready
  27. Narya - Leave You Alone
  28. Potatoheadz - Narcotic
  29. Paffendorf - On & On
  30. Ultra Sonic - Angels
  31. Karma - Every Time You Leave
  32. Ion - Can't You Hear Me
  33. Drumdummies - Bang The Beat
  34. O.T. System feat. Jland - Don't Stop My Beat
    Deep Hard:
    Spieldauer 20'04
  35. B-Real - A New Day
  36. Nostrum - Blockbuster
  37. Chris Cooper - Infinity
  38. DJ Cyglas - Roots Of Evil
  39. C - Heart Of Angel
  40. Gene Rogalla - Back To Cali
  41. Bad Habbit Boys - King Of Trash
  42. B-Real - Hard Rain
  43. Gene Rogallo - Noise Of Sky
  44. DJ Da Bomb - Scenario
  45. Klarsicht - Hope
  46. Pat Loom meets Zeitgeist 2002 - Love Convention
  47. Klarsicht - Back To Underground
  48. Marc O'Neil feat. Ranja - I Won't Cry
  49. Cover Remove - Recording
  50. Pat Loom - Emergeny
  51. DJ Cyglas pres. Edge Rider - Sweet Lies
    Deep Slow:
    Spieldauer 19'18
  52. Lil Jon & East Side Boys feat. Ice Cube - Roll Call
  53. Blue - Curtain Falls
  54. Jeanette - Run With Me
  55. Jamelia - DJ
  56. Ja Rule feat. R. Kelly & Ashanti - Wonderful
  57. Chingy - Balla Baby
  58. Bushido - Electro Ghetto
  59. 3rd Wish - Nina
  60. D. Saleh Zaki - Love Is The Message
  61. Seal - Walk On By
  62. Kine - In The Air Tonight
  63. The 411 - Dumb
  64. Ciara feat. Petey Pablo - Goodies
  65. Yvonne Catterfeld - Sag Mir Was Meinst Du
  66. Juli - Geile Zeit
  67. Destiny's Child - Lose My Breath
  68. Eminem - Just Lose It
  69. Shania Twain - Party For Two
Cue-Informationen:

FILE "filename.mp3" MP3
  TRACK 01 AUDIO
    INDEX 01 00:00:00
  TRACK 02 AUDIO
    INDEX 01 00:27:43
  TRACK 03 AUDIO
    INDEX 01 38:32:01
  TRACK 04 AUDIO
    INDEX 01 58:35:86
Wertung: (1)   Hinzugefügt: 6 April 2011
RSS Feed
RSS Feed
Sprache
Deutsch Englisch Französisch
Mixsuche
Suchbegriff
Genauer Wortlaut
Alle Worte (UND)
Ein Wort (ODER)
Statistik
14860 Mixe eingetragen
14547 Tracklisten
Newsletter
E-Mail
Anmelden
Abmelden
SPONSOREN