Mixkatalog
 Einloggen
Login
Passwort

Artist Power Hits: 357  

Artist Power


Kurzbeschreibung:
Deep präsentiert Artist Power.
 
Crew/DJ: Deep Reihe: Deep Artist Mixe
Stil: Dance Erscheinungsjahr: 2003
Anzahl Tonträger: 1 Spielzeit: 77:38
Trackliste:
Cue-Informationen:

FILE "filename.mp3" MP3
  TRACK 01 AUDIO
    INDEX 01 00:00:00
  TRACK 02 AUDIO
    INDEX 01 15:21:43
  TRACK 03 AUDIO
    INDEX 01 32:10:49
  TRACK 04 AUDIO
    INDEX 01 44:20:19
  TRACK 05 AUDIO
    INDEX 01 55:54:66
  TRACK 06 AUDIO
    INDEX 01 68:03:43
Wertung: (1)  
Hinzugefügt: 6 April 2011
RSS Feed
RSS Feed
Sprache
Deutsch Englisch Französisch
Mixsuche
Suchbegriff
Genauer Wortlaut
Alle Worte (UND)
Ein Wort (ODER)
Statistik
12441 Mixe eingetragen
12169 Tracklisten
Newsletter
E-Mail
Anmelden
Abmelden
SPONSOREN