Mixkatalog
 Einloggen
Login
Passwort

NDW Nonstop-Mix Hits: 132  

NDW Nonstop-Mix


Kurzbeschreibung:
SWG präsentiert NDW Nonstop-Mix. Die Größten NDW-Hits Im Mega Mix, gemixt von DJ Deep.
 
Crew/DJ: SWG Reihe: Sonstige
Stil: Deutsch Erscheinungsjahr: 2006
Anzahl Tonträger: 1 Spielzeit: 66:20
Trackliste:
Cue-Informationen:

FILE "filename.mp3" MP3
  TRACK 01 AUDIO
    INDEX 01 00:00:00
  TRACK 02 AUDIO
    INDEX 01 02:53:22
  TRACK 03 AUDIO
    INDEX 01 05:25:54
  TRACK 04 AUDIO
    INDEX 01 08:21:60
  TRACK 05 AUDIO
    INDEX 01 11:43:39
  TRACK 06 AUDIO
    INDEX 01 15:44:36
  TRACK 07 AUDIO
    INDEX 01 18:40:16
  TRACK 08 AUDIO
    INDEX 01 22:10:39
  TRACK 09 AUDIO
    INDEX 01 25:14:09
  TRACK 10 AUDIO
    INDEX 01 27:35:39
  TRACK 11 AUDIO
    INDEX 01 31:01:21
  TRACK 12 AUDIO
    INDEX 01 34:18:52
  TRACK 13 AUDIO
    INDEX 01 37:30:59
  TRACK 14 AUDIO
    INDEX 01 40:32:57
  TRACK 15 AUDIO
    INDEX 01 44:31:59
  TRACK 16 AUDIO
    INDEX 01 47:30:71
  TRACK 17 AUDIO
    INDEX 01 50:52:48
  TRACK 18 AUDIO
    INDEX 01 54:18:28
  TRACK 19 AUDIO
    INDEX 01 58:24:11
  TRACK 20 AUDIO
    INDEX 01 63:22:48
Wertung: ()  
Hinzugefügt: 16 March 2011
Bewerte als Erster diesen Mix:
RSS Feed
RSS Feed
Sprache
Deutsch Englisch Französisch
Mixsuche
Suchbegriff
Genauer Wortlaut
Alle Worte (UND)
Ein Wort (ODER)
Statistik
12279 Mixe eingetragen
12008 Tracklisten
Newsletter
E-Mail
Anmelden
Abmelden
SPONSOREN